The.Face.of.an.Angel.2014.1080p.BluRay.x264-MELiTE[rarbg]

Torrent Base Info

Title:
The.Face.of.an.Angel.2014.1080p.BluRay.x264-MELiTE[rarbg]
Total size:
7.65 GB
Create Time:
2015-07-21 13:58:17
Total Files:
6

Guess You Like

Files in this torrent

  • The.Face.of.an.Angel.2014.1080p.BluRay.x264-MELiTE[rarbg].torrent
  • The.Face.of.an.Angel.2014.1080p.BluRay.x264-MELiTE[rarbg]
    • RARBG.com.txt (34 B)
    • Subs
      • m-face-1080p-forced.idx (6.32 KB)
      • m-face-1080p-forced.sub (618 KB)
    • m-face-1080p.jpg (4.77 KB)
    • m-face-1080p.mkv (7.65 GB)
    • m-face-1080p.nfo (3.76 KB)

Torrent Recommendation

1.33 GB
2015-10-14 08:51:36
579 MB
2017-05-15 06:29:16
1.73 GB
2015-08-04 10:49:45
1.15 GB
2015-02-22 07:51:08
1.13 GB
2016-02-12 03:04:58
662 MB
2008-02-03 06:56:25
5.47 GB
2015-10-24 03:59:18
1.78 GB
2016-11-29 13:58:48
3.58 GB
2015-11-16 14:52:58
2.9 GB
2014-07-13 07:55:17
2.55 GB
2016-09-01 18:05:33
1.49 GB
2014-03-07 15:31:43
2.6 GB
2016-02-16 06:47:01
3.39 GB
None
643 MB
2007-05-21 18:55:38
3.49 GB
2016-04-25 18:27:43
3.67 GB
2016-07-25 09:35:56
2.15 GB
2016-05-20 02:03:52
2.8 GB
2011-03-11 07:52:28

Torrent Description

Movie
The Face of an Angel
Detected quality
1080p
Genre
Drama
Director
Michael Winterbottom
Language
English
Subtitles
English
Title
The Face of an Angel 2014 1080p BluRay x264-MELiTE
UpNum
+4
DownNum
0
Category
Movies > Highres Movies
image


SCREENSHOTS:-
image

MEDIAINFO:-
Video
ID : 1
Format : AVC
Format/Info : Advanced Video Codec
Format profile : [email protected]
Format settings, CABAC : Yes
Format settings, ReFrames : 5 frames
Codec ID : V_MPEG4/ISO/AVC
Duration : 1h 41mn
Bit rate : 9 239 Kbps
Width : 1 920 pixels
Height : 808 pixels
Display aspect ratio : 2.40:1
Frame rate mode : Constant
Frame rate : 23.976 fps
Color space : YUV
Chroma subsampling : 4:2:0
Bit depth : 8 bits
Scan type : Progressive
Bits/(Pixel*Frame) : 0.248
Stream size : 6.42 GiB (84%)
Writing library : x264 core 146 r2538 121396c
Encoding settings : cabac=1 / ref=5 / deblock=1:0:0 / analyse=0x3:0x113 / me=umh / subme=8 / psy=1 / psy_rd=1.00:0.00 / mixed_ref=1 / me_range=16 / chroma_me=1 / trellis=1 / 8x8dct=1 / cqm=0 / deadzone=21,11 / fast_pskip=0 / chroma_qp_offset=-2 / threads=18 / lookahead_threads=3 / sliced_threads=0 / nr=0 / decimate=1 / interlaced=0 / bluray_compat=0 / constrained_intra=0 / bframes=3 / b_pyramid=2 / b_adapt=2 / b_bias=0 / direct=3 / weightb=1 / open_gop=0 / weightp=2 / keyint=250 / keyint_min=23 / scenecut=40 / intra_refresh=0 / rc_lookahead=50 / rc=2pass / mbtree=1 / bitrate=9239 / ratetol=1.0 / qcomp=0.60 / qpmin=0 / qpmax=69 / qpstep=4 / cplxblur=20.0 / qblur=0.5 / ip_ratio=1.40 / aq=1:1.00
Language : English
Default : Yes
Forced : No
DURATION : 01:41:51.481000000
NUMBER_OF_FRAMES : 146529
NUMBER_OF_BYTES : 7057327972
_STATISTICS_WRITING_APP : mkvmerge v8.0.0 (\'Til The Day That I Die\') 64bit
_STATISTICS_WRITING_DATE_UTC : 2015-07-21 11:50:20
_STATISTICS_TAGS : BPS DURATION NUMBER_OF_FRAMES NUMBER_OF_BYTES

Audio
ID : 2
Format : DTS
Format/Info : Digital Theater Systems
Mode : 16
Format settings, Endianness : Big
Codec ID : A_DTS
Duration : 1h 41mn
Bit rate mode : Constant
Bit rate : 1 509 Kbps
Channel(s) : 6 channels
Channel positions : Front: L C R, Side: L R, LFE
Sampling rate : 48.0 KHz
Bit depth : 24 bits
Compression mode : Lossy
Stream size : 1.07 GiB (14%)
Language : English
Default : Yes
Forced : No

Text
ID : 3
Format : UTF-8
Codec ID : S_TEXT/UTF8
Codec ID/Info : UTF-8 Plain Text
Language : English
Default : Yes
Forced : No

Menu
00:00:00.000 : en:00:00:00.000
00:09:45.710 : en:00:09:45.710
00:22:01.779 : en:00:22:01.779
00:31:27.677 : en:00:31:27.677
00:40:47.445 : en:00:40:47.445
00:52:13.005 : en:00:52:13.005
01:03:02.320 : en:01:03:02.320
01:11:16.230 : en:01:11:16.230
01:26:01.114 : en:01:26:01.114
01:36:35.790 : en:01:36:35.790

Torrent Description

Names
The Face of an Angel/天使面庞/天使的脸
Caption
[1080P][07-21] 天使面庞/天使的脸 The.Face.of.an.Angel.2014.1080p.BluRay.x264-MELiTE
Year
2014
Nation
英国/意大利/西班牙
Category
剧情
Language
英语字 幕N/A
File Format
H264 + DTS
File Size
1CD 7.65 GiB
Director
迈克尔・温特伯顿 Michael Winterbottom
Starring
卡拉・迪瓦伊 Cara Delevingne ...Melanie/凯特・贝金赛尔 Kate Beckinsale ...Simone Ford/丹尼尔・布鲁赫 Daniel Brühl ...Thomas/Genevieve Gaunt ...Jessica Fuller/Ava Acres ...Bea/Lucy Cohu ...Caroline/萝丝・菲勒 Rosie Fellner ...Katherine/Sai Bennett ...Elizabeth Pryce/Sara Stewart ...Sarah/John Hopkins ...Joe/Alistair Petrie ...Steve/Peter Sullivan ...James Pryce/Alessandro Ananasso ...Hotel Receptionist (voice)/Valerio Mastandrea ...Edoardo/Corrado Invernizzi ...Francesco
故事灵感来自讲述阿曼达・诺克斯案件(被控谋杀英国室友)的小说《Angel Face》。片中,记者西蒙妮和纪录片导演托马斯追踪一宗谋杀案,故事将着重于两人的心理变化。阿曼达・诺克斯谋杀案发生于2007年年末,曾是一桩震惊意大利的杀人案件。阿曼达・诺克斯来自美国华盛顿州的西雅图市,在意大利佩鲁贾一所大学留学,她被指控在意大利留学期间残忍杀害室友,被称为“天使脸孔杀手”。该案件在2009年宣布审判结果,阿曼达被判处26年监禁。2011年因罪证不吻合,阿曼达获得释放,后来这一裁决又被意大利最高法院推翻重审……复杂曲折的案件审判和背后扑朔迷离的真相正是极佳的影视素材。 不过导演迈克尔・温特伯顿表示,虽然这个案件很出名,但他的影片并不会主要关于案件本身,且不会有案件主要人阿曼达・诺克斯的角色。他也把丹尼尔・布鲁赫在其中饰演的男主角类比但丁,称本片是现代版《神曲》。
pdf.worthsee.com PDF合并 PDF选页 PDF提取图片 PDF转HTML PDF分成单页 PDF提取文字