飞鸟娱乐[bbs.hdbird.com].街区大作战.720p.中英字幕

Torrent Base Info

Title:
飞鸟娱乐[bbs.hdbird.com].街区大作战.720p.中英字幕
Total size:
2.19 GB
Create Time:
2011-09-27 05:26:47
Total Files:
8

Guess You Like

Files in this torrent

  • 飞鸟娱乐[bbs.hdbird.com].街区大作战.720p.中英字幕.torrent
  • 飞鸟娱乐[bbs.hdbird.com].街区大作战.720p.中英字幕
    • [email protected]飞鸟娱乐.txt (1.27 KB)
    • 飞鸟网-和浪子一起来开心农场偷菜吧.url (281 B)
    • 飞鸟娱乐-边看电影边学英语,娱乐学习两不误.url (272 B)
    • 飞鸟娱乐网址更新器.rar (114 KB)
    • 街区大作战 Attack.The.Block.2011.BluRay.720p.x264.AC3-WOFEI.mkv (2.19 GB)
    • 街区大作战.jpg (378 KB)
    • 街区大作战.txt (8.61 KB)
    • 小浪影视-下载中英字幕电影的好地方.url (270 B)

Torrent Recommendation

7.66 GB
2016-09-22 15:43:23
2.98 GB
2016-09-22 10:40:38
3.35 GB
2017-05-02 10:05:08
3.71 GB
2016-01-13 10:19:03
1.11 GB
2014-12-17 04:08:36
807 MB
2016-12-24 02:08:24
1.95 GB
2016-05-30 01:26:58
2.95 GB
2016-02-17 06:45:47
1.12 GB
2015-11-27 07:57:02
2.56 GB
2013-03-01 05:07:16
2.8 GB
2011-03-11 07:52:28
4.96 GB
2015-12-17 07:37:15
2.02 GB
2016-11-29 13:34:43
1.2 GB
2016-12-12 04:26:00
945 MB
2016-12-22 17:04:47
603 MB
2010-01-24 07:12:28
3.03 GB
2016-04-07 12:36:29
6.55 GB
2015-03-28 14:20:45
1.03 GB
2015-04-11 03:56:01

Torrent Description

Names
Attack The Block/街区大作战/中英字幕/中文字幕/英中字幕/英文字幕
Caption
街区大作战 Attack.The.Block.2011.BluRay.720p.x264.AC3-WOFEI 中英字幕
Year
2011
Nation
英国
Category
动作/喜剧/科幻
Language
英语
File Format
X264 + AC3
Video Size
1280 x 720
File Size
1CD
Director
乔·考尼什 Joe Cornish
Starring
尼克·弗罗斯特 Nick Frost ....Ron/茱蒂·惠特克 Jodie Whittaker ....Sam/卢克·崔德威 Luke Treadaway ....Brewis/弗拉米妮亚·辛克 Flaminia Cinque ....Italian Woman/乔伊·安沙 Joey Ansah ....Policeman 1/克里斯托弗·威尔森 Christopher Wilson ....Arresting Police Officer/Maggie McCarthy ....Margaret/Lee Nicholas Harris ....Police Officer - swat/Adam Leese ....Policeman 2/Terry Notary ....The Creature/Jumayn Hunter ....Hi-Hatz/Jacey Sallés ....Biggz's Mum/Karl Collins ....Dennis' Dad/Franz Drameh ....Dennis/Sammy Williams ....Probs/Yvonne D'Alpra ....Pest's Nan/Dylan Charles ....Constable/Lee Long ....Patrick/Danielle Vitalis ....Tia/John Boyega ....Moses/Alex Esmail ....Pest/Stephanie Street ....Policewoman/Philip Harvey ....CO19 Officer/Jermaine Smith ....Beats/Simon Howard ....Biggz/Arti Shah ....Creature Performer/Selom Awadzi ....Tonks/Haneen Hammou ....Bubbles/Leeon Jones ....Jerome/Saffron Lashley ....Roxanne/Gina Antwi ....Dionne/Paige Meade ....Dimples/Karl Baumann ....Creature Performer/Michael Ajao ....Mayhem/Natasha Jonas ....Gloria
剧情 英国伦敦南部篝火节的晚上,一群街头小混混Moses、Pest、Dennis、Jerome和Biggz正在抢劫一名护士Sam,突然一个庞然大物从天而降,把停在旁边的汽车砸出了一个大洞。当他们着手进行调查时,发现了一种寄居在陨石里的生物并杀了它。随着更多的外星生物侵入地球,为了保卫自己和整座城市,小混混与外星人展开了一场殊死搏斗。 一句话评论 有趣、惊悚,可供多次观赏。 --《帝国》 今年不容错过的英国电影。 --Time Out 虽然光芒四射,但还是尚欠火候。 --英国卫报 幕后制作 影片由乔·考尼什自编自导,虽然这是他的首部导演处女作,可乔·考尼什在电影界已是摸爬滚打多年。他长期与埃德加·赖特合作编写剧本,在大制作电影《丁丁历险记:独角兽号的秘密》、《蚁人》的编剧团队中都有他的身影。他制作的喜剧《Adam and Joe》曾获英国皇家电视协会奖。 现实与想象的结合 乔·考尼什说自己也是影迷,他认为电影对于他就像体育运动对其他人一样,他投入了一生的热情与执着,因此不可避免会将自己的一些价值观和想法融入到电影当中。他说,"我一生都在思考关于电影类型的问题,而我最喜欢做的就是考虑给电影安个什么样的标签。"英国导演对于科幻电影和现实主义电影都十分擅长,但他们并不认为这两者有结合在一起的必要,而这正是他想要做的。乔?考尼什表示自己喜欢的电影类型是成本低廉却高度概念型的电影,还有80年代的美国电影,因为它们"将现实与幻想融合在一起。电影《外星人ET》有点像肯·罗奇或迈克·李混搭詹姆斯·卡梅隆。这些电影都将场景设置在郊区,所以本片的中心思想是现实与想象的结合。" 对于从编剧到导演的转型,乔·考尼什认为这是一个很自然的过程,他认为英国电影市场受到美国电影影响很深,尽管偶尔有几部巅峰之作,却无法达到与美国电影业一样的工业化水平,虽然英国有很多好导演,但他们大部分都不在英国,所以他也有意无意地形成了现有的观念。他说,"我从小就想拍一部这样的电影,我家的墙上贴满了科幻片的海报,而现在我40岁,我一直在等待,等着我相信自己能写出好剧本,等着我有足够的自信成为一个导演,很好地掌控一切。这部电影是我的一个机会,所以我的目标可能有点高。"回想起当时的情景,乔?考尼什还是觉得很不可思议,"当时的情况是,9个没啥经验的年轻演员,一个第一次执导电影的导演,外加追逐戏、动作戏、夜拍、爆炸、动画效果和街头语言等元素,我完全没想到他们会给我投资拍摄这部电影,所以非常感谢他们对我这么信任,我也希望他们能收回成本。" 由于制作经费少,他负担不起CGI技术制作外星人,整个制作必须基于现有的条件进行,他认为数字技术能够对想要表现的事物进行升华,完全不需要利用CGI技术凭空做出一个人物,因此影片中有着绿色下巴的外星生物结合了现实主义和数字技术。导演乔·考尼什亲自设计了这个外星生物,他的想法最初源于他童年对拉尔夫?巴克希的电影《指环王》中的指环幽灵的记忆,另外一个灵感来自于电影《300勇士》中的像影子木偶一样的狼群,"然后我就想出了这个外星生物,既能保证有趣的视觉效果,又能达到经济和技术上的要求。"为追求影片的真实效果,导演乔?考尼什花了几个月的时间在伦敦南部的街头与这种街头小帮派进行交流,给他们讲述影片中的故事,然后一字不差地记录下他们的对话。这种伦敦街头小帮派常用的街头俚语让他很是兴奋,"这种对于社会现实的悲观压抑也能这种从另一个角度去看待,和他们交流就像是进行灵格风(linguaphone)语言培训,我好像在学习意大利语。" 新面孔 新惊喜 除了尼克·弗罗斯特,片中几乎都是新鲜面孔,少了学院派教科书式的表演,多了幽默写实的街头范儿。这是尼克·弗罗斯特第一次出现在没有老搭档西蒙·佩吉的电影中,虽然只是在片中进行客串,但他认为本片是他第二喜欢的外星人电影。饰演带头大哥Moses的Boyega的表演也是可圈可点,这个角色被赋予的性格是最完整的,他担负着带领众人向外星人开战的重任。另一个令人眼前一亮的是在片中饰演Brewis的演员卢克·崔德威,现年27岁的他饰演起15-16岁的小年轻一点也不突兀,对于和一群新人合作,他表示很兴奋,"就像是人生中第一次身临其境的感觉,难以抑制的兴奋激动,只是我们的游戏场变成了有外星人和长满野草的摩天大楼。"他对导演赞口不绝,"他的剧本简直无懈可击,虽然内容很不可思议但剧情却相当紧凑,我们几乎不需要进行临场发挥。" I:\rmvb资源\[高清MKV收藏 www.hdbird.com ]\飞鸟娱乐[bbs.hdbird.com].街区大作战.720p.中英字幕\街区大作战 Attack.The.Block.2011.BluRay.720p.x264.AC3-WOFEI.mkv General Complete name : I:\rmvb资源\[高清MKV收藏 www.hdbird.com ]\飞鸟娱乐[bbs.hdbird.com].街区大作战.720p.中英字幕\街区大作战 Attack.The.Block.2011.BluRay.720p.x264.AC3-WOFEI.mkv Format : Matroska File size : 2.19 GiB Duration : 1h 27mn Overall bit rate : 3 568 Kbps Encoded date : UTC 2011-09-27 05:10:09 Writing application : mkvmerge v3.4.0 ('Rapunzel') 编译于 May 15 2010 09:38:20 Writing library : libebml v0.8.0 + libmatroska v0.9.0 Video #1 ID : 1 Format : AVC Format/Info : Advanced Video Codec Format profile : [email protected] Format settings, CABAC : Yes Format settings, ReFrames : 4 frames Muxing mode : Container [email protected] Codec ID : V_MPEG4/ISO/AVC Duration : 1h 27mn Bit rate : 3 049 Kbps Nominal bit rate : 3 117 Kbps Width : 1 280 pixels Height : 720 pixels Display aspect ratio : 16:9 Frame rate : 23.976 fps Resolution : 8 bits Colorimetry : 4:2:0 Scan type : Progressive Bits/(Pixel*Frame) : 0.138 Stream size : 1.87 GiB (85%) Writing library : x264 core 116 r2074 2641b9e Encoding settings : cabac=1 / ref=3 / deblock=1:0:0 / analyse=0x3:0x113 / me=hex / subme=7 / psy=1 / psy_rd=1.00:0.00 / mixed_ref=1 / me_range=16 / chroma_me=1 / trellis=1 / 8x8dct=1 / cqm=0 / deadzone=21,11 / fast_pskip=1 / chroma_qp_offset=-2 / threads=6 / sliced_threads=0 / nr=0 / decimate=1 / interlaced=0 / bluray_compat=0 / constrained_intra=0 / bframes=3 / b_pyramid=2 / b_adapt=1 / b_bias=0 / direct=1 / weightb=1 / open_gop=0 / weightp=2 / keyint=250 / keyint_min=23 / scenecut=40 / intra_refresh=0 / rc_lookahead=40 / rc=2pass / mbtree=1 / bitrate=3117 / ratetol=1.0 / qcomp=0.60 / qpmin=0 / qpmax=69 / qpstep=4 / cplxblur=20.0 / qblur=0.5 / vbv_maxrate=50000 / vbv_bufsize=50000 / nal_hrd=none / ip_ratio=1.40 / aq=1:1.00 Language : English Audio #2 ID : 2 Format : AC-3 Format/Info : Audio Coding 3 Codec ID : A_AC3 Duration : 1h 27mn Bit rate mode : Constant Bit rate : 448 Kbps Channel(s) : 6 channels Channel positions : Front: L C R, Surround: L R, LFE Sampling rate : 48.0 KHz Stream size : 281 MiB (13%) Text #3 ID : 3 Format : SSA Codec ID : S_TEXT/SSA Codec ID/Info : Sub Station Alpha Title : 中英 Text #4 ID : 4 Format : SSA Codec ID : S_TEXT/SSA Codec ID/Info : Sub Station Alpha Title : 英中 Text #5 ID : 5 Format : UTF-8 Codec ID : S_TEXT/UTF8 Codec ID/Info : UTF-8 Plain Text Title : 中文 Text #6 ID : 6 Format : UTF-8 Codec ID : S_TEXT/UTF8 Codec ID/Info : UTF-8 Plain Text Title : 英文
pdf.worthsee.com PDF合并 PDF选页 PDF提取图片 PDF转HTML PDF分成单页 PDF提取文字