Hitman.Agent.47.2015.720p.HDRip.KORSUB.x264.AAC2.0-RARBG

Torrent Base Info

Title:
Hitman.Agent.47.2015.720p.HDRip.KORSUB.x264.AAC2.0-RARBG
Total size:
2.48 GB
Create Time:
2015-10-22 00:52:54
Total Files:
4

Guess You Like

Files in this torrent

  • Hitman.Agent.47.2015.720p.HDRip.KORSUB.x264.AAC2.0-RARBG.torrent
  • Hitman.Agent.47.2015.720p.HDRip.KORSUB.x264.AAC2.0-RARBG
    • Hitman.Agent.47.2015.720p.HDRip.KORSUB.x264.AAC2.0-RARBG.mp4 (2.48 GB)
    • Hitman.Agent.47.2015.720p.HDRip.KORSUB.x264.AAC2.0-RARBG.nfo (3.77 KB)
    • RARBG.com.mp4 (992 KB)
    • RARBG.com.txt (34 B)

Torrent Recommendation

1.23 GB
2016-12-04 13:02:00
3.84 GB
2016-02-02 09:25:29
520 MB
2014-05-25 07:07:02
815 MB
2009-01-29 07:34:30
904 MB
2013-10-15 11:25:44
871 MB
2016-06-17 07:09:26
1.45 GB
2014-09-29 09:14:24
2.51 GB
2016-05-04 07:56:22
1.07 GB
2014-04-03 13:41:19
1.14 GB
2015-10-06 06:26:06
502 MB
2013-02-04 02:19:14
4.33 GB
2014-11-30 01:00:51
1.83 GB
2015-12-21 09:41:22
1.92 GB
2016-06-29 00:30:47
1.11 GB
2014-07-16 17:44:06
587 MB
2016-12-27 14:54:13
1.25 GB
2014-06-14 14:19:02
2.74 GB
2015-10-30 06:00:14

Torrent Description

Movie
Hitman: Agent 47
Detected quality
720p
Genres
Action
Language
English
Title
Hitman Agent 47 2015 720p HDRip KORSUB x264 AAC2 0-RARBG
UpNum
+80
DownNum
-5
Category
Movies
https://rarbg.to
Hitman.Agent.47.2015.720p.HDRip.KORSUB.x264.AAC2.0-RARBG

image



Screens :

image

image

image

image

image

image



Mediainfo :

Video
ID : 1
Format : AVC
Format/Info : Advanced Video Codec
Format profile : [email protected]
Format settings, CABAC : Yes
Format settings, ReFrames : 4 frames
Codec ID : avc1
Codec ID/Info : Advanced Video Coding
Duration : 1h 36mn
Bit rate : 3 500 Kbps
Width : 1 280 pixels
Height : 712 pixels
Display aspect ratio : 16:9
Frame rate mode : Constant
Frame rate : 24.000 fps
Color space : YUV
Chroma subsampling : 4:2:0
Bit depth : 8 bits
Scan type : Progressive
Bits/(Pixel*Frame) : 0.160
Stream size : 2.32 GiB (94%)
Title : Hitman.Agent.47.2015.720p.HDRip.KORSUB.x264.AAC2.0-RARBG
Writing library : x264 core 146 r2555 0c21480
Encoding settings : cabac=1 / ref=4 / deblock=1:-2:-2 / analyse=0x3:0x113 / me=umh / subme=7 / psy=1 / psy_rd=1.00:0.15 / mixed_ref=1 / me_range=16 / chroma_me=1 / trellis=2 / 8x8dct=1 / cqm=0 / deadzone=21,11 / fast_pskip=1 / chroma_qp_offset=-3 / threads=8 / lookahead_threads=2 / sliced_threads=0 / nr=0 / decimate=1 / interlaced=0 / bluray_compat=0 / constrained_intra=0 / bframes=3 / b_pyramid=2 / b_adapt=2 / b_bias=0 / direct=3 / weightb=1 / open_gop=0 / weightp=2 / keyint=250 / keyint_min=25 / scenecut=40 / intra_refresh=0 / rc_lookahead=50 / rc=abr / mbtree=1 / bitrate=3500 / ratetol=1.0 / qcomp=0.60 / qpmin=0 / qpmax=69 / qpstep=4 / vbv_maxrate=31250 / vbv_bufsize=31250 / nal_hrd=none / filler=0 / ip_ratio=1.40 / aq=1:1.00

Audio
ID : 2
Format : AAC
Format/Info : Advanced Audio Codec
Format profile : LC
Codec ID : 40
Duration : 1h 36mn
Duration_LastFrame : 46ms
Bit rate mode : Variable
Bit rate : 224 Kbps
Maximum bit rate : 31.3 Mbps
Channel(s) : 2 channels
Channel positions : Front: L R
Sampling rate : 44.1 KHz
Compression mode : Lossy
Stream size : 154 MiB (6%)
Title : Hitman.Agent.47.2015.720p.HDRip.KORSUB.x264.AAC2.0-RARBG





Torrent Description

Names
刺客特攻47(港) / 刺客任务: 杀手47(台) / 杀手:代号47
Caption
[720P][10-22] 代号47/杀手:代号47/ 刺客特攻47(港) / 刺客任务: 杀手47(台) Hitman.Agent.47.2015.720p.HDRip.KORSUB.x264.A
Release Date
2015-08-21(美国)
Nation
美国
Category
动作 / 惊悚 / 犯罪
Language
英语
Director
亚历山大・巴赫
Starring
鲁伯特・弗兰德 / 扎克瑞・昆图 / 塞伦・希德 / 托马斯・克莱舒曼 / 汉娜・韦尔
pdf.worthsee.com PDF合并 PDF选页 PDF提取图片 PDF转HTML PDF分成单页 PDF提取文字