Age.of.the.Dead.2015.1080p.BluRay.x264.DD5.1-RARBG

Torrent Base Info

Title:
Age.of.the.Dead.2015.1080p.BluRay.x264.DD5.1-RARBG
Total size:
5.99 GB
Create Time:
2015-08-02 10:11:51
Total Files:
4

Guess You Like

Files in this torrent

  • Age.of.the.Dead.2015.1080p.BluRay.x264.DD5.1-RARBG.torrent
  • Age.of.the.Dead.2015.1080p.BluRay.x264.DD5.1-RARBG
    • Age.of.the.Dead.2015.1080p.BluRay.x264.DD5.1-RARBG.mkv (5.99 GB)
    • Age.of.the.Dead.2015.1080p.BluRay.x264.DD5.1-RARBG.nfo (3.93 KB)
    • RARBG.com.mp4 (992 KB)
    • RARBG.com.txt (34 B)

Torrent Recommendation

2.13 GB
2017-04-08 23:50:50
2.05 GB
2016-04-14 15:58:17
2.12 GB
2015-09-30 13:50:11
2.83 GB
2016-07-30 11:27:40
1.38 GB
2014-07-23 06:41:51
1.4 GB
2016-08-10 04:32:28
1.85 GB
None
2.67 GB
2016-03-06 03:05:20
1.05 GB
2013-07-19 00:17:50
818 MB
2015-12-25 05:45:13
2.17 GB
2015-11-05 09:29:24
1.21 GB
2014-11-09 11:05:03
1.41 GB
2016-04-18 09:52:01
2.51 GB
2015-11-17 08:30:27
1.3 GB
2017-04-02 00:23:49
3.29 GB
2013-01-04 03:23:57
855 MB
2013-09-21 04:07:19
3.28 GB
2016-06-22 02:21:05

Torrent Description

Movie
Age of the Dead
Detected quality
1080p
Genres
Drama
Director
Francesco Picone
Title
Age of the Dead 2015 1080p BluRay x264 DD5 1-RARBG
UpNum
+8
DownNum
0
Category
Movies > Highres Movies

https://rarbg.to
Age.of.the.Dead.2015.1080p.BluRay.x264.DD5.1-RARBG

image
Screens :

image

image

image

image

image

image
Mediainfo :

Video
ID : 1
Format : AVC
Format/Info : Advanced Video Codec
Format profile : [email protected]
Format settings, CABAC : Yes
Format settings, ReFrames : 4 frames
Codec ID : V_MPEG4/ISO/AVC
Duration : 1h 23mn
Bit rate : 9 571 Kbps
Width : 1 920 pixels
Height : 800 pixels
Display aspect ratio : 2.40:1
Frame rate mode : Constant
Frame rate : 23.976 fps
Color space : YUV
Chroma subsampling : 4:2:0
Bit depth : 8 bits
Scan type : Progressive
Bits/(Pixel*Frame) : 0.260
Stream size : 5.50 GiB (92%)
Title : Age.of.the.Dead.2015.1080p.BluRay.x264.DD5.1-RARBG
Writing library : x264 core 146 r2538 121396c
Encoding settings : cabac=1 / ref=3 / deblock=1:0:0 / analyse=0x3:0x113 / me=hex / subme=7 / psy=1 / psy_rd=1.00:0.00 / mixed_ref=1 / me_range=16 / chroma_me=1 / trellis=1 / 8x8dct=1 / cqm=0 / deadzone=21,11 / fast_pskip=1 / chroma_qp_offset=-2 / threads=12 / lookahead_threads=2 / sliced_threads=0 / nr=0 / decimate=1 / interlaced=0 / bluray_compat=0 / constrained_intra=0 / bframes=3 / b_pyramid=2 / b_adapt=1 / b_bias=0 / direct=1 / weightb=1 / open_gop=0 / weightp=2 / keyint=240 / keyint_min=23 / scenecut=40 / intra_refresh=0 / rc_lookahead=40 / rc=2pass / mbtree=1 / bitrate=9571 / ratetol=1.0 / qcomp=0.60 / qpmin=0 / qpmax=69 / qpstep=4 / cplxblur=20.0 / qblur=0.5 / ip_ratio=1.40 / aq=1:1.00
Language : English
Default : Yes
Forced : No

Audio
ID : 2
Format : AC-3
Format/Info : Audio Coding 3
Mode extension : CM (complete main)
Format settings, Endianness : Big
Codec ID : A_AC3
Duration : 1h 23mn
Bit rate mode : Constant
Bit rate : 640 Kbps
Channel(s) : 6 channels
Channel positions : Front: L C R, Side: L R, LFE
Sampling rate : 48.0 KHz
Compression mode : Lossy
Stream size : 385 MiB (6%)
Title : Age.of.the.Dead.2015.1080p.BluRay.x264.DD5.1-RARBG
Language : English
Default : Yes
Forced : No



Torrent Description

Names
Anger of the Dead/丧尸之怒
Caption
[1080P][08-04] 丧尸之怒 Age.of.the.Dead.2015.1080p.BluRay.x264.DD5.1-RARBG
Year
2015
Nation
美国
Category
恐怖
Language
英语字 幕N/A
File Format
x264 + DTS
File Size
5.99 GiB
Director
Francesco Picone
Starring
Aaron Stielstra ...Rooker/Michael Segal ...Peter/Marius Bizau ...Stephen/Désirée Giorgetti ...Prisoner/Claudio Camilli ...Hulk/David White ...Ben/Ally McClelland ...Liam (voice)/Roberta Sparta ...Alice
Video ID : 1 Format : AVC Format/Info : Advanced Video Codec Format profile : HighL4 Format settings, CABAC : Yes Format settings, ReFrames : 4 frames Codec ID : V_MPEG4/ISO/AVC Duration : 1h 23mn Bit rate : 9 571 Kbps Width : 1 920 pixels Height : 800 pixels Display aspect ratio : 2.40:1 Frame rate mode : Constant Frame rate : 23.976 fps Color space : YUV Chroma subsampling : 4:2:0 Bit depth : 8 bits Scan type : Progressive Bits/(Pixel*Frame) : 0.260 Stream size : 5.50 GiB (92%) Title : Age.of.the.Dead.2015.1080p.BluRay.x264.DD5.1-RARBG Writing library : x264 core 146 r2538 121396c Encoding settings : cabac=1 / ref=3 / deblock=1:0:0 / analyse=0x3:0x113 / me=hex / subme=7 / psy=1 / psy_rd=1.00:0.00 / mixed_ref=1 / me_range=16 / chroma_me=1 / trellis=1 / 8x8dct=1 / cqm=0 / deadzone=21,11 / fast_pskip=1 / chroma_qp_offset=-2 / threads=12 / lookahead_threads=2 / sliced_threads=0 / nr=0 / decimate=1 / interlaced=0 / bluray_compat=0 / constrained_intra=0 / bframes=3 / b_pyramid=2 / b_adapt=1 / b_bias=0 / direct=1 / weightb=1 / open_gop=0 / weightp=2 / keyint=240 / keyint_min=23 / scenecut=40 / intra_refresh=0 / rc_lookahead=40 / rc=2pass / mbtree=1 / bitrate=9571 / ratetol=1.0 / qcomp=0.60 / qpmin=0 / qpmax=69 / qpstep=4 / cplxblur=20.0 / qblur=0.5 / ip_ratio=1.40 / aq=1:1.00 Language : English Default : Yes Forced : No Audio ID : 2 Format : AC-3 Format/Info : Audio Coding 3 Mode extension : CM (complete main) Format settings, Endianness : Big Codec ID : A_AC3 Duration : 1h 23mn Bit rate mode : Constant Bit rate : 640 Kbps Channel(s) : 6 channels Channel positions : Front: L C R, Side: L R, LFE Sampling rate : 48.0 KHz Compression mode : Lossy Stream size : 385 MiB (6%) Title : Age.of.the.Dead.2015.1080p.BluRay.x264.DD5.1-RARBG Language : English Default : Yes Forced : No 复制代码

Torrent Description

Names
Aloft/在空中/在高处
Caption
[1080P][08-04] 在空中/在高处 Age.of.the.Dead.2015.1080p.BluRay.x264.DD5.1-RARBG
Year
2014
Release Date
2014-02-12 (德)/2014-03-28 (西班牙)
Nation
美国/西班牙/法 France
Category
剧情
Language
英语
Director
克劳迪雅・洛萨 Claudia Llosa
Starring
詹妮弗・康纳利 Jennifer Connelly/希里安・墨菲 Cillian Murphy/梅拉尼・罗兰 Mélanie Laurent
娜娜昆是一挫折的,也是一知名的人和治。一名者找到被她20年的子后,打算要造一人大的……。ALOFT to compete & world-premiere at Berlinale 2014. "Aloft," Claudia Llosa's latest film, has been announced to be in the main competi tion at the 64th Berlin International Film Festival in Feburary 2014. Starring Jennifer Connelly, Cillian Murphy and Mélanie Laurent, the film will also have its world premiere during the Festival. The film will be part of the Official Selection at Berlianle, competing alongside films such as Wes Anderson's "The Grand Hotel Budapest". Llosa is no stranger to this annual event: she took home the Golden Bear for "The Milk Of Sorrow" in 2009 as well as the Teddy Award for her short film "Loxoro" in 2012. 获奖情况 第64届柏林国际电影节 (2014) 金熊奖(提名) 克劳迪雅・洛萨
pdf.worthsee.com PDF合并 PDF选页 PDF提取图片 PDF转HTML PDF分成单页 PDF提取文字