飞鸟娱乐[bbs.hdbird.com].火之通途.720p.中英字幕

Torrent Base Info

Title:
飞鸟娱乐[bbs.hdbird.com].火之通途.720p.中英字幕
Total size:
3.41 GB
Create Time:
2012-05-30 07:26:42
Total Files:
10

Guess You Like

Files in this torrent

  • 飞鸟娱乐[bbs.hdbird.com].火之通途.720p.中英字幕.torrent
  • 飞鸟娱乐[bbs.hdbird.com].火之通途.720p.中英字幕
    • [email protected]飞鸟娱乐.txt (1.27 KB)
    • hztt1.JPG (149 KB)
    • hztt2.JPG (126 KB)
    • 飞鸟网-和浪子一起来开心农场偷菜吧.url (281 B)
    • 飞鸟娱乐-边看电影边学英语,娱乐学习两不误.url (272 B)
    • 飞鸟娱乐网址更新器.rar (114 KB)
    • 火之通途 Agneepath.2012.BluRay.720p.x264.AC3-WOFEI.mkv (3.41 GB)
    • 火之通途.jpg (117 KB)
    • 火之通途.txt (5.07 KB)
    • 老调网-下载中英字幕电影的好地方.url (272 B)

Torrent Recommendation

503 MB
2008-02-16 19:59:49
4.69 GB
2017-05-02 21:53:44
3.04 GB
2016-05-20 11:27:37
2.13 GB
2016-03-17 13:22:11
13.2 GB
2017-02-09 09:28:18
889 MB
2016-08-02 22:35:18
896 MB
2015-12-05 05:48:02
1.37 GB
2014-11-01 13:50:47
500 MB
2007-06-26 00:54:08
1.52 GB
2016-02-02 14:08:32
2.06 GB
2016-05-28 00:52:12
4.37 GB
2016-05-26 14:37:39
2.4 GB
2011-04-25 11:06:39
1.09 GB
2008-04-15 08:58:22
1.14 GB
2016-12-08 13:53:10
2.96 GB
2016-10-26 00:53:19
1.05 GB
2015-03-17 14:34:19
1.85 GB
2015-04-03 04:28:48

Torrent Description

Names
Agneepath/火之通途/天堂路(台)/火之路/火道路/新版中英字幕/经典中英字幕/英中字幕/中
Caption
火之通途 Agneepath.2012.BluRay.720p.x264.AC3-WOFEI 中英字幕
Year
2012
Nation
印度
Category
动作/犯罪/剧情/音乐
Language
北印度语
File Format
X264 + AC3
Video Size
1280 x 720
File Size
1CD 3.42GB
Director
Karan Malhotra
Starring
赫里尼克·罗斯汉 Hrithik Roshan ....Vijay Dinanath Chauhan/卡特莉娜·卡芙 Katrina Kaif ....Chikni Chameli/朴雅卡·乔普拉 Priyanka Chopra ....Kaali/桑杰·达特 Sanjay Dutt ....Kancha/里希·卡普尔 Rishi Kapoor ....Rauf Lala/Rajesh Tandon ....Mazhar lala/Inaamulhaq ....Shiva/Madhurjeet Sarghi ....Lachhi
在印度一个小村庄曼德瓦(Mandwa),维杰(赫里尼克·罗斯汉饰演)的父亲是名正直的校长,时常以一首励志诗"Agneepath"来教育维杰,人生中不管遇到多大的困难,一定要走在正确的道路上。 但维杰的父亲却被想要控制曼德瓦作为据点的毒贩坎查(桑杰·达特饰演)陷害,愤怒的村民就在他怀孕的妻子与年幼的维杰面前把他吊死,维杰的人生瞬间崩毁,年仅12岁的他带着母亲离开曼德瓦前往孟买,并发誓他一定会再回来为父亲平反,向坎查复仇。 维杰一到孟买,就加入了当地势力最大的黑帮,用尽一切手段,踩过无数人的血泊,一步步往上爬,15年后,做梦都想着报仇的维杰终于回到了曼德瓦,命运的轮回开始转动了..... I:\rmvb资源\[高清MKV收藏 www.hdbird.com ]\飞鸟娱乐[bbs.hdbird.com].火之通途.720p.中英字幕\火之通途 Agneepath.2012.BluRay.720p.x264.AC3-WOFEI.mkv General Complete name : I:\rmvb资源\[高清MKV收藏 www.hdbird.com ]\飞鸟娱乐[bbs.hdbird.com].火之通途.720p.中英字幕\火之通途 Agneepath.2012.BluRay.720p.x264.AC3-WOFEI.mkv Format : Matroska File size : 3.41 GiB Duration : 2h 54mn Overall bit rate : 2 808 Kbps Encoded date : UTC 2012-05-30 07:00:21 Writing application : mkvmerge v3.4.0 ('Rapunzel') 编译于 May 15 2010 09:38:20 Writing library : libebml v0.8.0 + libmatroska v0.9.0 Video #1 ID : 1 Format : AVC Format/Info : Advanced Video Codec Format profile : [email protected] Format settings, CABAC : Yes Format settings, ReFrames : 4 frames Muxing mode : Container [email protected] Codec ID : V_MPEG4/ISO/AVC Duration : 2h 54mn Bit rate : 2 304 Kbps Nominal bit rate : 2 358 Kbps Width : 1 280 pixels Height : 720 pixels Display aspect ratio : 16:9 Frame rate : 24.000 fps Resolution : 8 bits Colorimetry : 4:2:0 Scan type : Progressive Bits/(Pixel*Frame) : 0.104 Stream size : 2.80 GiB (82%) Writing library : x264 core 120 r2164 da19765 Encoding settings : cabac=1 / ref=4 / deblock=1:-1:-1 / analyse=0x3:0x113 / me=umh / subme=6 / psy=1 / psy_rd=1.00:0.00 / mixed_ref=1 / me_range=16 / chroma_me=1 / trellis=2 / 8x8dct=1 / cqm=0 / deadzone=21,11 / fast_pskip=1 / chroma_qp_offset=-2 / threads=6 / sliced_threads=0 / nr=0 / decimate=1 / interlaced=0 / bluray_compat=0 / constrained_intra=0 / bframes=3 / b_pyramid=0 / b_adapt=1 / b_bias=0 / direct=3 / weightb=1 / open_gop=0 / weightp=2 / keyint=240 / keyint_min=23 / scenecut=40 / intra_refresh=0 / rc_lookahead=40 / rc=2pass / mbtree=1 / bitrate=2358 / ratetol=1.0 / qcomp=0.60 / qpmin=10 / qpmax=51 / qpstep=4 / cplxblur=20.0 / qblur=0.5 / vbv_maxrate=50000 / vbv_bufsize=50000 / nal_hrd=none / ip_ratio=1.40 / aq=1:1.00 Language : English Audio #2 ID : 2 Format : AC-3 Format/Info : Audio Coding 3 Codec ID : A_AC3 Duration : 2h 54mn Bit rate mode : Constant Bit rate : 448 Kbps Channel(s) : 6 channels Channel positions : Front: L C R, Surround: L R, LFE Sampling rate : 48.0 KHz Stream size : 558 MiB (16%) Text #3 ID : 3 Format : SSA Codec ID : S_TEXT/SSA Codec ID/Info : Sub Station Alpha Title : 新版中英 Text #4 ID : 4 Format : SSA Codec ID : S_TEXT/SSA Codec ID/Info : Sub Station Alpha Title : 经典中英 Text #5 ID : 5 Format : SSA Codec ID : S_TEXT/SSA Codec ID/Info : Sub Station Alpha Title : 英中 Text #6 ID : 6 Format : UTF-8 Codec ID : S_TEXT/UTF8 Codec ID/Info : UTF-8 Plain Text Title : 中文 Text #7 ID : 7 Format : UTF-8 Codec ID : S_TEXT/UTF8 Codec ID/Info : UTF-8 Plain Text Title : 英文 正常显示效果如下:
pdf.worthsee.com PDF合并 PDF选页 PDF提取图片 PDF转HTML PDF分成单页 PDF提取文字