Dearest.2014.720p.BluRay.x264-WiKi

Torrent Base Info

Title:
Dearest.2014.720p.BluRay.x264-WiKi
Total size:
5.51 GB
Create Time:
2015-04-30 16:13:51
Total Files:
4

Guess You Like

Files in this torrent

  • Dearest.2014.720p.BluRay.x264-WiKi.torrent
  • Dearest.2014.720p.BluRay.x264-WiKi
    • Dearest.2014.720p.BluRay.x264-WiKi.mkv (5.46 GB)
    • Dearest.2014.720p.BluRay.x264-WiKi.nfo (4.42 KB)
    • RARBG.com.txt (34 B)
    • Sample
      • Dearest.2014.720p.BluRay.x264-WiKi.sample.mkv (54.1 MB)

Torrent Recommendation

3.33 GB
2017-02-28 11:08:35
654 MB
2008-03-20 06:33:27
2.55 GB
2015-09-18 08:14:14
1.43 GB
2016-08-19 03:11:04
2.02 GB
2016-07-18 14:34:57
892 MB
2014-01-05 15:40:12
9.83 GB
2016-01-14 13:35:52
1.81 GB
2016-08-28 06:47:16
920 MB
2013-05-10 07:19:01
7.15 GB
2014-06-29 08:57:11
1.56 GB
2016-01-15 03:09:09
1.34 GB
2014-08-08 10:58:54
1.54 GB
2013-02-21 11:44:36
983 MB
2016-05-16 10:28:07
1.81 GB
2016-08-24 09:58:59
678 MB
2014-07-13 13:59:54
2.9 GB
2016-03-25 03:12:40
429 MB
2010-09-04 16:59:13

Torrent Description

Movie
Dearest
Detected quality
720p
Genre
Drama
Language
Mandarin
Subtitles
Chinese
Title
Dearest 2014 720p BluRay x264-WiKi
UpNum
+4
DownNum
0
Category
Movies > Highres Movies
NAME.................: Dearest
GENRE................: Drama
RATiNG...............: 7.8/10 from 649 users
iMDB.................: http://www.imdb.com/title/tt3752930
RELEASE DATE.........: 2015-04-30
ENCODE BY............: Jubowo @ WiKi
RUNTiME..............: 2h:08m:33s
FiLE SiZE............: 5.46 GiB
ViDEO CODEC..........: x264 @ 5442 Kbps
AUDiO CODEC..........: Mandarin DD 5.1 @ 640 Kbps
FRAMERATE............: 24 fps
RESOLUTiON...........: 1280x544
SOURCE...............: 1080p Blu-ray AVC DTS-HD MA 5.1-TTG
SUBTiTLES............: CHS_CHT
http://imagecurl.com/viewer....ile=15984733062541253648.png
http://imagecurl.com/viewer....ile=92453560241592782015.png
http://imagecurl.com/viewer....ile=21878655911171188906.png

MediaInfo


Video
ID : 1
Format : AVC
Format/Info : Advanced Video Codec
Format profile : [email protected]
Format settings, CABAC : Yes
Format settings, ReFrames : 12 frames
Codec ID : V_MPEG4/ISO/AVC
Duration : 2h 8mn
Bit rate : 5 442 Kbps
Width : 1 280 pixels
Height : 544 pixels
Display aspect ratio : 2.35:1
Frame rate mode : Constant
Frame rate : 24.000 fps
Color space : YUV
Chroma subsampling : 4:2:0
Bit depth : 8 bits
Scan type : Progressive
Bits/(Pixel*Frame) : 0.326
Stream size : 4.78 GiB (87%)
Writing library : x264 core 129 r2245+704+36 8e61944 tMod+MixAQ [[email protected]:2:0 X86_64]
Encoding settings : cabac=1 / ref=12 / deblock=1:-3:-3 / analyse=0x3:0x133 / me=umh / subme=11 / psy=1 / fade_compensate=0.00 / psy_rd=1.05:0.10 / mixed_ref=1 / me_range=32 / chroma_me=1 / trellis=2 / 8x8dct=1 / cqm=0 / deadzone=21,11 / fast_pskip=0 / chroma_qp_offset=-3 / threads=18 / lookahead_threads=3 / sliced_threads=0 / nr=0 / decimate=0 / interlaced=0 / bluray_compat=0 / constrained_intra=0 / fgo=0 / bframes=10 / b_pyramid=2 / b_adapt=2 / b_bias=0 / direct=3 / weightb=1 / open_gop=0 / weightp=2 / keyint=250 / keyint_min=24 / scenecut=40 / intra_refresh=0 / rc_lookahead=80 / rc=2pass / mbtree=1 / bitrate=5442 / ratetol=1.0 / qcomp=0.70 / qpmin=0 / qpmax=69 / qpstep=4 / cplxblur=20.0 / qblur=0.5 / ip_ratio=1.40 / aq=3 / aq-strength=0.85 / aq-sensitivity=10.00 / aq-ifactor=1.00 / aq-pfactor=1.00 / aq-bfactor=1.00 / aq2=0
Language : Chinese
Default : Yes
Forced : No
Matrix coefficients : BT.709
Color range : Limited

Audio
ID : 2
Format : AC-3
Format/Info : Audio Coding 3
Mode extension : CM (complete main)
Format settings, Endianness : Big
Codec ID : A_AC3
Duration : 2h 8mn
Bit rate mode : Constant
Bit rate : 640 Kbps
Channel(s) : 6 channels
Channel positions : Front: L C R, Side: L R, LFE
Sampling rate : 48.0 KHz
Bit depth : 16 bits
Compression mode : Lossy
Stream size : 588 MiB (11%)
Language : Chinese
Default : Yes
Forced : No

Text #1
ID : 3
Format : UTF-8
Codec ID : S_TEXT/UTF8
Codec ID/Info : UTF-8 Plain Text
Title : Simplified
Language : Chinese
Default : Yes
Forced : No

Text #2
ID : 4
Format : UTF-8
Codec ID : S_TEXT/UTF8
Codec ID/Info : UTF-8 Plain Text
Title : Traditional
Language : Chinese
Default : No
Forced : No

Menu
00:00:00.000 : en:00:00:00.000
00:10:15.625 : en:00:10:15.625
00:20:54.208 : en:00:20:54.208
00:35:04.333 : en:00:35:04.333
00:45:42.666 : en:00:45:42.666
00:52:56.333 : en:00:52:56.333
01:07:58.791 : en:01:07:58.791
01:15:09.708 : en:01:15:09.708
01:27:53.833 : en:01:27:53.833
01:37:19.500 : en:01:37:19.500
01:49:40.791 : en:01:49:40.791
01:58:26.750 : en:01:58:26.750

Torrent Description

Names
Dearest/亲爱的/家/亲爱的小孩/打拐/家之亲爱的小孩
Caption
[720P][05-01] 亲爱的/家/亲爱的小孩/打拐/家之亲爱的小孩 Dearest.2014.720p.BluRay.x264-WiKi
Year
2014
Nation
中国
Category
剧情
Language
普通话字 幕简体中文/繁体中文
File Format
X264 + DD5.1
File Size
1CD 5.46 GiB
Director
陈可辛 Peter Chan
Starring
赵薇 Vicki Zhao ...李红琴/黄渤 Bo Huang ...田文军/郝蕾 Lei Hao ...鲁晓娟/佟大为 Dawei Tong ...高夏/张译 Yi Zhang ...韩德忠/张雨绮 Kitty Zhang ...樊芸/馀皑磊 Ailei Yu ...民警刘向东/朱东旭 ...Dongxu Zhu/一情 ...Qing Yi/张国强 Guoqiang Zhang/王志飞 Zhifei Wang
影片改编自一个真实的社会故事: 田文军(黄渤 饰)和妻子鲁晓娟(郝蕾 饰)生活在深圳,他们婚姻破裂,儿子田鹏是二人唯一牵绊。一天,田鹏在家附近的公园玩耍,结果一去不返,让这个原本就分裂的家庭陷入了绝望。 为了找回自己的儿子,他们俩运用一切可能的方法――通过互联网寻找、在大街小巷上贴了成千上万张寻人启事、给予承诺让自己儿子安全回来的人报酬等等。不过,这一切并没有让田鹏回家,反而让不法之徒找上门来,令两人的情况雪上加霜。 长年累月没有结果的搜寻,夫妻两人心灵交瘁,唯一让他们稍感安慰的是,他们在寻找儿子的过程中,几个与他们有类似经历的家庭的命运紧紧联系在了一起。 三年后,夫妻两人跋涉千里穿州过省,终在偏僻村落的一户人家中,看到一个像极儿子的身影。通过孩子额头上的一个疤痕,他们终于确定他正是自己丢失的儿子。但是,孩子却对一个 农村妇人李红琴(赵薇 饰)喊着“妈妈”。 李红琴对事情的发展同样费解,她坚称自己并不知道孩子是拐卖来的。她只知道,这孩子是自己亡夫留下来的。经过了警方的DNA鉴定,一家人终于团聚并回到了深圳,这时候的小田鹏,已经6岁了。然而故事却并没有圆满结束。 花絮 .《亲爱的》是赵薇继《致青春》后以演员身份重回大大银幕的首部作品。 .该片中赵薇全片都是用芜湖方言说的台词,而赵薇正是芜湖人。 .这是导演陈可辛和编剧张冀继《中国合伙人》之后再度联手。 .片中张译扮演的那位父亲,虽然在电影中放弃了寻找自己的孩子,但是在现实里,他至今仍在寻找。电影的最后,放上了一张他孩子的照片,这位父亲希望把自己的电话一并公布,“万一有人能看到呢?” .导演陈可辛不希望演员被人物原型形象“束缚”,所以安排演员们在影片拍摄结束之后才和真实人物见面。 获奖记录 香港电影金像奖(2015;第34届) 获奖 ・金像奖-最佳女主角赵薇 Vicki Zhao 提名 ・金像奖-最佳男主角黄渤 Bo Huang ・金像奖-最佳导演陈可辛 Peter Chan ・金像奖-最佳编剧张冀 Zhang Ji ・金像奖-最佳影片许月珍 Jo Jo Hui 台湾电影金马奖(2014;第51届) 提名 ・金马奖-最佳女主角奖赵薇 Vicki Zhao 北京国际电影节(2015;第5届) 提名 ・展映单元-中国故事
pdf.worthsee.com PDF合并 PDF选页 PDF提取图片 PDF转HTML PDF分成单页 PDF提取文字