飞鸟娱乐[bbs.hdbird.com].无人之子.720p.中英字幕

Torrent Base Info

Title:
飞鸟娱乐[bbs.hdbird.com].无人之子.720p.中英字幕
Total size:
2.19 GB
Create Time:
2011-11-29 16:45:48
Total Files:
9

Guess You Like

Files in this torrent

  • 飞鸟娱乐[bbs.hdbird.com].无人之子.720p.中英字幕.torrent
  • 飞鸟娱乐[bbs.hdbird.com].无人之子.720p.中英字幕
    • [email protected]飞鸟娱乐.txt (1.27 KB)
    • 飞鸟网-和浪子一起来开心农场偷菜吧.url (281 B)
    • 飞鸟娱乐-边看电影边学英语,娱乐学习两不误.url (272 B)
    • 飞鸟娱乐网址更新器.rar (114 KB)
    • 老调网-下载中英字幕电影的好地方.url (272 B)
    • 无人之子 The.Son.of.No.One.2011.BluRay.720p.x264.AC3-WOFEI.jpg (226 KB)
    • 无人之子 The.Son.of.No.One.2011.BluRay.720p.x264.AC3-WOFEI.mkv (2.18 GB)
    • 无人之子.jpg (381 KB)
    • 无人之子.txt (4.63 KB)

Torrent Recommendation

1.05 GB
2015-03-16 09:13:34
1.38 GB
2013-01-22 12:41:53
320 MB
2007-12-23 19:41:19
1.25 GB
2016-11-14 12:11:21
1.88 GB
2016-09-01 11:34:49
873 MB
2015-04-29 14:54:53
1004 MB
2017-04-22 08:52:25
249 MB
2016-05-02 11:45:23
1.52 GB
2016-06-01 01:25:50
2.73 GB
2014-10-28 13:31:17
475 MB
2016-02-02 11:27:07
1.74 GB
2015-08-16 06:58:43
2.24 GB
2016-11-22 06:18:52
1.77 GB
2012-06-21 05:28:41
2.65 GB
2016-04-02 15:49:35
1.22 GB
2015-01-04 03:56:44
1.3 GB
2015-01-28 04:28:06
906 MB
2015-05-11 01:46:32
981 MB
2016-11-28 01:13:12

Torrent Description

Names
The Son of No One/无人之子/中英字幕/中文字幕/英中字幕/英文字幕
Caption
无人之子 The.Son.of.No.One.2011.BluRay.720p.x264.AC3-WOFEI 中英字幕
Year
2011
Nation
美国
Category
动作/犯罪/惊悚
Language
英语
File Format
X264 + AC3
Video Size
1280 x 720
File Size
1CD 2.18G
Director
蒂托·蒙蒂尔 Dito Montiel
Starring
查宁·塔图姆 Channing Tatum ....Jonathan White/阿尔·帕西诺 Al Pacino ....Detective Stanford/朱丽叶·比诺什 Juliette Binoche ....Lauren Bridges/雷·利奥塔 Ray Liotta/凯蒂·霍尔姆斯 Katie Holmes/Brian Gilbert ....Young Vinnie/杰克·切瑞 Jake Cherry ....Milk/Sean Cregan ....Martinez/Simone Joy Jones ....Young Vicky/崔西·摩根 Tracy Morgan ....Vinnie/James Ransone ....Thomas Prudenti/Roger Guenveur Smith ....Hanky/Ursula Parker ....Charolette White/Lemon ....Geronimo/Paul Vasquez
事业小有成绩的警察Jonathan “Milk” White(查宁·塔图姆)被调回他成长的蓝领街区,在那里,他年幼时与朋友Vinnie(崔西·摩根)犯下的谋杀罪面临着被曝光的威胁。他的妻子(凯蒂·霍尔姆斯)与儿子,他的家庭与事业,都可能被这个秘密摧毁。 幕后制作 影片的导演蒂托·蒙蒂尔曾执导过《圣徒指南》与《地下拳击场》。 I:\rmvb资源\[高清MKV收藏 www.hdbird.com ]\飞鸟娱乐[bbs.hdbird.com].无人之子.720p.中英字幕\无人之子 The.Son.of.No.One.2011.BluRay.720p.x264.AC3-WOFEI.mkv General Complete name : I:\rmvb资源\[高清MKV收藏 www.hdbird.com ]\飞鸟娱乐[bbs.hdbird.com].无人之子.720p.中英字幕\无人之子 The.Son.of.No.One.2011.BluRay.720p.x264.AC3-WOFEI.mkv Format : Matroska File size : 2.18 GiB Duration : 1h 33mn Overall bit rate : 3 335 Kbps Encoded date : UTC 2011-11-29 16:21:36 Writing application : mkvmerge v3.4.0 ('Rapunzel') 编译于 May 15 2010 09:38:20 Writing library : libebml v0.8.0 + libmatroska v0.9.0 Video #1 ID : 1 Format : AVC Format/Info : Advanced Video Codec Format profile : [email protected] Format settings, CABAC : Yes Format settings, ReFrames : 4 frames Muxing mode : Container [email protected] Codec ID : V_MPEG4/ISO/AVC Duration : 1h 33mn Bit rate : 2 820 Kbps Nominal bit rate : 2 887 Kbps Width : 1 280 pixels Height : 720 pixels Display aspect ratio : 16:9 Frame rate : 23.976 fps Resolution : 8 bits Colorimetry : 4:2:0 Scan type : Progressive Bits/(Pixel*Frame) : 0.128 Stream size : 1.85 GiB (84%) Writing library : x264 core 116 r2074 2641b9e Encoding settings : cabac=1 / ref=3 / deblock=1:0:0 / analyse=0x3:0x113 / me=hex / subme=7 / psy=1 / psy_rd=1.00:0.00 / mixed_ref=1 / me_range=16 / chroma_me=1 / trellis=1 / 8x8dct=1 / cqm=0 / deadzone=21,11 / fast_pskip=1 / chroma_qp_offset=-2 / threads=6 / sliced_threads=0 / nr=0 / decimate=1 / interlaced=0 / bluray_compat=0 / constrained_intra=0 / bframes=3 / b_pyramid=2 / b_adapt=1 / b_bias=0 / direct=1 / weightb=1 / open_gop=0 / weightp=2 / keyint=250 / keyint_min=23 / scenecut=40 / intra_refresh=0 / rc_lookahead=40 / rc=2pass / mbtree=1 / bitrate=2887 / ratetol=1.0 / qcomp=0.60 / qpmin=0 / qpmax=69 / qpstep=4 / cplxblur=20.0 / qblur=0.5 / vbv_maxrate=50000 / vbv_bufsize=50000 / nal_hrd=none / ip_ratio=1.40 / aq=1:1.00 Language : English Audio #2 ID : 2 Format : AC-3 Format/Info : Audio Coding 3 Codec ID : A_AC3 Duration : 1h 33mn Bit rate mode : Constant Bit rate : 448 Kbps Channel(s) : 6 channels Channel positions : Front: L C R, Surround: L R, LFE Sampling rate : 48.0 KHz Stream size : 300 MiB (13%) Text #3 ID : 3 Format : SSA Codec ID : S_TEXT/SSA Codec ID/Info : Sub Station Alpha Title : 中英 Text #4 ID : 4 Format : SSA Codec ID : S_TEXT/SSA Codec ID/Info : Sub Station Alpha Title : 英中 Text #5 ID : 5 Format : UTF-8 Codec ID : S_TEXT/UTF8 Codec ID/Info : UTF-8 Plain Text Title : 中文 Text #6 ID : 6 Format : UTF-8 Codec ID : S_TEXT/UTF8 Codec ID/Info : UTF-8 Plain Text Title : 英文
pdf.worthsee.com PDF合并 PDF选页 PDF提取图片 PDF转HTML PDF分成单页 PDF提取文字