飞鸟娱乐[bbs.hdbird.com].小红帽.720p.中英字幕

Torrent Base Info

Title:
飞鸟娱乐[bbs.hdbird.com].小红帽.720p.中英字幕
Total size:
2.05 GB
Create Time:
2011-05-30 02:40:03
Total Files:
9

Guess You Like

Files in this torrent

  • 飞鸟娱乐[bbs.hdbird.com].小红帽.720p.中英字幕.torrent
  • 飞鸟娱乐[bbs.hdbird.com].小红帽.720p.中英字幕
    • [email protected]飞鸟娱乐.txt (1.27 KB)
    • 飞鸟网-和浪子一起来开心农场偷菜吧.url (281 B)
    • 飞鸟娱乐-边看电影边学英语,娱乐学习两不误.url (272 B)
    • 飞鸟娱乐[bbs.hdbird.com].小红帽.720p.中英字幕.mkv (2.05 GB)
    • 飞鸟娱乐网址更新器.rar (123 KB)
    • 小红帽 Red.Riding.Hood.2011.BluRay.720p.x264.AC3-WOFEI.jpg (177 KB)
    • 小红帽.jpg (373 KB)
    • 小红帽.txt (6.68 KB)
    • 小浪影视-下载中英字幕电影的好地方.url (270 B)

Torrent Description

Names
Red Riding Hood/小红帽/血红帽/中英字幕/中文字幕/英中字幕/英文字幕
Caption
【飞鸟影视BT组】小红帽 Red.Riding.Hood.2011.BluRay.720p.x264.AC3-WOFEI 中英字幕
Year
2011
Nation
美国/加拿大
Category
幻想/恐怖/神秘/惊悚
Language
英语
File Format
X264 + AC3
Video Size
1280 x 720
File Size
1CD 2.05G
Director
凯瑟琳·哈德威克 Catherine Hardwicke
Starring
阿曼达·塞弗里德 Amanda Seyfried ....Valerie/希罗·弗南德兹 Shiloh Fernandez ....Peter/麦克斯·艾恩斯 Max Irons ....Henry/加里·奥德曼 Gary Oldman ....Solomon/比利·伯克 Billy Burke ....Cesaire/维吉妮娅·马德森 Virginia Madsen ....Suzette/卢卡斯·哈斯 Lukas Haas ....Father Auguste/朱莉·克里斯蒂 Julie Christie ....Grandmother/Shauna Kain ....Roxanne/Michael Hogan ....The Reeve/Adrian Holmes ....Captain/Cole Heppell ....Claude/Christine Willes ....Madame Lazar/迈克尔·山克斯 Michael Shanks ....Adrien Lazar/Kacey Rohl ....Prudence/Carmen Lavigne ....Rose/Don Thompson ....Tavern Owner/马特·瓦德 Matt Ward ....Captain's Brother/Megan Charpentier ....Young Valerie/Dj Greenburg ....Young Peter/Jen Halley ....Marguerite/Alexandria Maillot ....Lucie/Bella King ....Solomon's Daughter/Olivia Steele-Falconer ....Solomon's Daughter/Alex Pesusich ....Man in Wolf Costume (as Alexander Pesusich)/Jordy Becker ....Woodcutter/James Michalopolous ....Solomon's Soldier/Darren Shahlavi ....Solomon's Soldier/Dalias Blake ....Solomon's Soldier/Michael Adamthwaite ....Solomon's Soldier/劳洛·查坦德 Lauro Chartrand ....Solomon's Soldier/Brad Kelly ....Solomon's Soldier/Paul Wu ....Solomon's Soldier/Gavin Buhr ....Solomon's Soldier/Samuel Smith ....Solomon's Soldier/Sarah Elgart ....Dancer/Archie Rice ....Wolf Voice (voice)/Che Pritchard ....Dancer/Kaitlyn McCready ....Dancer/Michelle C. Smith ....Dancer/Mark Jaxin ....Villager
几十年以来,剑角村(Daggerhorn)的村民一直和当地的一个狼人维持着岌岌可危的平安状态。每到月圆之时,狼人就会出没觅食。这个时候,村民为了换取自己的安全,就会给狼人祭献上一头牲畜。不过,在一个月圆之日,狼人打破了惯例,吃掉了一个村民。 这个村民是瓦莱利的姐姐。瓦莱利是一个年轻、漂亮的女孩。她刚刚发现自己的父母已经为她私定了终生,要将她嫁给亨利。亨利是镇子上著名的富二代,他家是全镇最有钱有势的家庭。不过,瓦莱利却早已心有所属,她爱着彼得。彼得是一个穷光蛋,工作就是砍树。瓦莱利和彼得情感笃定,正决计这要逃跑私奔。不过,吃了人的狼人打破了小镇的宁静和所有人的计划。事情全都乱了套。 村民们渴望报复,于是便找来了著名的狼人猎手所罗门神父,希求他能为剑角村解决这个隐患。不过,所罗门的到来却引发了小镇更大的骚动。他告诉村民,狼人只有在月圆之时才会变身,平时完全是正常人的模样,而且很有可能就是一个普通的村民,全村人都脱离不了是"披着人皮的狼"的嫌疑。 随着月圆之夜的再次逼近,小镇人民都生活在恐慌和不安之中。狼人的存在使得这个原本幸福安宁的小镇变得七零八落。但是瓦莱利却意外地发现自己同狼人竟然有着某种说不清道不明的心灵感应。这种心灵感应让她一方面对狼人的生活和本尊产生了好奇和疑虑,另一方面也让她成为了诱使狼人步入村民全套的诱饵。 I:\rmvb资源\[高清MKV收藏 www.hdbird.com ]\飞鸟娱乐[bbs.hdbird.com].小红帽.720p.中英字幕\小红帽 Red.Riding.Hood.2011.BluRay.720p.x264.AC3-WOFEI.mkv General Complete name : I:\rmvb资源\[高清MKV收藏 www.hdbird.com ]\飞鸟娱乐[bbs.hdbird.com].小红帽.720p.中英字幕\小红帽 Red.Riding.Hood.2011.BluRay.720p.x264.AC3-WOFEI.mkv Format : Matroska File size : 2.05 GiB Duration : 1h 40mn Overall bit rate : 2 926 Kbps Encoded date : UTC 2011-05-30 01:36:04 Writing application : mkvmerge v3.4.0 ('Rapunzel') 编译于 May 15 2010 09:38:20 Writing library : libebml v0.8.0 + libmatroska v0.9.0 Video #1 ID : 1 Format : AVC Format/Info : Advanced Video Codec Format profile : [email protected] Format settings, CABAC : Yes Format settings, ReFrames : 4 frames Muxing mode : Container [email protected] Codec ID : V_MPEG4/ISO/AVC Duration : 1h 40mn Bit rate : 2 419 Kbps Nominal bit rate : 2 475 Kbps Width : 1 280 pixels Height : 720 pixels Display aspect ratio : 16:9 Frame rate : 23.976 fps Resolution : 8 bits Colorimetry : 4:2:0 Scan type : Progressive Bits/(Pixel*Frame) : 0.109 Stream size : 1.69 GiB (83%) Writing library : x264 core 114 r1924 08d04a4 Encoding settings : cabac=1 / ref=3 / deblock=1:0:0 / analyse=0x3:0x113 / me=hex / subme=7 / psy=1 / psy_rd=1.00:0.00 / mixed_ref=1 / me_range=16 / chroma_me=1 / trellis=1 / 8x8dct=1 / cqm=0 / deadzone=21,11 / fast_pskip=1 / chroma_qp_offset=-2 / threads=6 / sliced_threads=0 / nr=0 / decimate=1 / interlaced=0 / constrained_intra=0 / bframes=3 / b_pyramid=2 / b_adapt=1 / b_bias=0 / direct=1 / weightb=1 / open_gop=0 / weightp=2 / keyint=250 / keyint_min=23 / scenecut=40 / intra_refresh=0 / rc_lookahead=40 / rc=2pass / mbtree=1 / bitrate=2475 / ratetol=1.0 / qcomp=0.60 / qpmin=0 / qpmax=69 / qpstep=4 / cplxblur=20.0 / qblur=0.5 / vbv_maxrate=50000 / vbv_bufsize=50000 / nal_hrd=none / ip_ratio=1.40 / aq=1:1.00 Language : English Audio #2 ID : 2 Format : AC-3 Format/Info : Audio Coding 3 Codec ID : A_AC3 Duration : 1h 40mn Bit rate mode : Constant Bit rate : 448 Kbps Channel(s) : 6 channels Channel positions : Front: L C R, Surround: L R, LFE Sampling rate : 48.0 KHz Stream size : 322 MiB (15%) Text #3 ID : 3 Format : SSA Codec ID : S_TEXT/SSA Codec ID/Info : Sub Station Alpha Title : 中英 Text #4 ID : 4 Format : SSA Codec ID : S_TEXT/SSA Codec ID/Info : Sub Station Alpha Title : 英中 Text #5 ID : 5 Format : UTF-8 Codec ID : S_TEXT/UTF8 Codec ID/Info : UTF-8 Plain Text Title : 中文 Text #6 ID : 6 Format : UTF-8 Codec ID : S_TEXT/UTF8 Codec ID/Info : UTF-8 Plain Text Title : 英文
convert.freelrc.com 云音乐格式在线转换 QMC转MP3 QMC0转MP3 QMC3转MP3 QMCOGG转OGG QMCFLAC转FLAC NCM转MP3