飞鸟娱乐[bbs.hdbird.com].歌舞青春三部曲.720P.国英双语

Torrent Base Info

Title:
飞鸟娱乐[bbs.hdbird.com].歌舞青春三部曲.720P.国英双语
Total size:
7.39 GB
Create Time:
2010-08-21 16:29:43
Total Files:
17

Guess You Like

Files in this torrent

  • 飞鸟娱乐[bbs.hdbird.com].歌舞青春三部曲.720P.国英双语.torrent
  • 飞鸟娱乐[bbs.hdbird.com].歌舞青春三部曲.720P.国英双语
    • [email protected]飞鸟娱乐.txt (1.27 KB)
    • 弹弹堂-远征的召唤.url (317 B)
    • 德克萨斯扑克游戏-零距离感受欧美最风靡的扑克游戏.url (272 B)
    • 飞鸟娱乐-边看电影边学英语,娱乐学习两不误.url (272 B)
    • 飞鸟娱乐[bbs.hdbird.com].歌舞青春1.720P.国英双语.mkv (2.32 GB)
    • 飞鸟娱乐[bbs.hdbird.com].歌舞青春2.720P.国英双语.mkv (2.34 GB)
    • 飞鸟娱乐[bbs.hdbird.com].歌舞青春3.720P.国英粤三语.mkv (2.74 GB)
    • 飞鸟娱乐网址更新器.rar (122 KB)
    • 飞鸟娱乐主页-下载免费电影的绝佳选择!.htm (5.99 KB)
    • 歌舞青春 High.School.Musical.2006.BluRay.720p.x264.AC3-WOFEI.jpg (275 KB)
    • 歌舞青春.txt (25.2 KB)
    • 歌舞青春1.jpg (99.1 KB)
    • 歌舞青春2 High.School.Musical.2.2007.BluRay.720p.x264.AC3-WOFEI.jpg (309 KB)
    • 歌舞青春2.jpg (89.7 KB)
    • 歌舞青春3 High.School.Musical.3.2008.BluRay.720p.x264.AC3-WOFEI.jpg (318 KB)
    • 歌舞青春3.jpg (167 KB)
    • 小浪影视-下载中英字幕电影的好地方.url (270 B)

Torrent Recommendation

7 GB
2017-01-26 10:49:09
1.02 GB
2017-03-22 07:36:29
2.47 GB
2016-01-08 02:51:33
1.46 GB
2013-09-29 03:43:38
944 MB
2013-01-16 18:43:07
2.77 GB
2013-06-13 00:46:14
750 MB
2008-08-08 07:34:26
1.5 GB
None
2.44 GB
2016-09-11 15:40:48
2.02 GB
2017-03-01 23:46:19
1.33 GB
2015-11-05 06:31:03
2.8 GB
2016-03-17 06:08:26
3.19 GB
2012-04-24 08:14:50
1.15 GB
2014-05-24 14:27:56
2.9 GB
2015-09-07 01:59:07
4.31 GB
2017-05-15 22:28:14
2.61 GB
2016-09-08 07:00:30
563 MB
2007-08-23 18:09:55
4.17 GB
2017-03-04 03:31:59

Torrent Description

Names
High School Musical/歌舞青春/高校音乐剧/中英字幕/中文字幕/英中字幕/英文字幕
Caption
【飞鸟影视BT组】歌舞青春三部曲 High.School.Musical.I.II.III.BluRay.720p.x264.AC3-WOFEI 国语双语
Year
2006
Nation
美国
Category
喜剧/剧情/家庭/音乐/爱情
Language
英语/普通话
File Format
X264 + AC3
Video Size
1280 x 720
File Size
1CD 2.32G
Director
肯尼·奥特加 Kenny Ortega
Starring
扎克·埃夫隆 Zac Efron .... Troy Bolton/瓦妮莎·安妮·哈金斯 Vanessa Anne Hudgens .... Gabriella Montez/爱希丽·提丝黛儿 Ashley Tisdale .... Sharpay Evans/Lucas Grabeel .... Ryan Evans/科宾·布鲁 Corbin Bleu .... Chad Danforth/莫妮克·科尔曼 Monique Coleman .... Taylor McKessie/Bart Johnson .... Coach Jack Bolton/Alyson Reed .... Ms. Darbus/小克里斯·沃伦 Chris Warren Jr. .... Zeke Baylor/奥列斯娅·鲁琳 Olesya Rulin .... Kelsi Nielsen/Ryne Sanborn .... Jason Cross/Socorro Herrera .... Mrs. Montez/Joey Miyashima .... Principal Matsui/Dutch Whitlock .... Skater Dude #1/Ryan Templeman .... Skater Dude #2/Irene Santiago .... Chem Teacher (as Irene Santiago-Baron)/Leslie Wing .... Mrs. Bolton (as Leslie Pomeroy)/Joyce Cohen .... Librarian/凯切·斯特罗 Kaycee Stroh .... Martha Cox/Brett Yoder .... M.C.
一场偶然的除夕卡拉OK比赛让两个表面毫无关系的高中生——学校篮球队队长特罗伊,跟性格害羞但成绩优异的新生凯蒂相识。本属于两个不同世界的他们意外发现原来彼此对唱歌都十分热爱,配合更是十分默契。凑巧的是,假期结束后,他们更发觉两人原来就读于同一所学校。种种巧合让特罗伊和凯蒂更加关注彼此,渐渐对对方产生好感。 学校各项比赛宣传进行得如火如荼,特罗伊为一年一度的高校篮球比赛做着准备,而凯蒂也报名参加了十项全能大赛。但与此同时,二人又被学校组织的音乐剧演出吸引住了目光。他们都希望有所改变,去做另一个领域的事情。特罗伊不甘于只做一名天才球员,而凯蒂也不想被人称为“数学怪胎”。于是很快音乐剧初试名单上就出现了特罗伊和凯蒂的名字,二人都希望能成为学校最新音乐剧的男女主角。 凯蒂新认识的朋友泰勒及特罗伊的好友兼支持者查顿知道消息后均表示不赞成,查顿不希望见到自己的篮球偶像登上舞台,而泰勒 则担心自己带领的学术比赛队伍将失去一个重要的队员。一向都是学校音乐剧主角的夏帕及雷恩亦担心自己在学校的地位将受动摇,于是联同泰勒及查顿想尽办法使特罗伊及凯蒂不能成为音乐剧的主角。而其中,特罗伊和凯蒂也因此产生过误会,但终究冰释。 虽然困难重重,但特罗伊及凯蒂并没有因此而放弃,反而更积极追寻自己的梦想,亦影响到其他同学向别人展示一些他们一直隐藏起来的才华!朋友们意识到自己的自私和愚蠢,决定支持二人参加音乐剧。但紧要关头,夏帕和雷恩暗中捣鬼,说服老师修改复试时间。导致音乐剧复试时间与篮球比赛、十项全能大赛时间冲突,但在朋友们的帮助下,这些并不是问题。特罗伊和凯蒂终于如愿以偿地参加了音乐剧复试,并得到了老师和同学们的肯定。 精彩视点:《歌舞青春》堪称迪士尼频道史上最为成功的原创电影,全美累积超过一亿四百万的收视人口,在台湾也超过两百多万的收视观众,一度刷新台湾迪士尼频道原创电影的首播纪录。在全美青少年人气高居第一的《歌舞青春》,继巡回全美校园演出音乐剧后,也正式开拍续集。为此,迪士尼频道更在全球官网上开放网友投票公投,决定《歌舞青春2》的部分剧情内容。 另外,《歌舞青春》原声带年度销售超过370万张,成为全美2006年度最畅销的专辑作品。 E:\[高清MKV收藏 www.hdbird.com ]\飞鸟娱乐[bbs.hdbird.com].歌舞青春三部曲.720P.中英字幕\歌舞青春 High.School.Musical.2006.BluRay.720p.x264.AC3-WOFEI.mkv General Complete name : E:\[高清MKV收藏 www.hdbird.com ]\飞鸟娱乐[bbs.hdbird.com].歌舞青春三部曲.720P.中英字幕\歌舞青春 High.School.Musical.2006.BluRay.720p.x264.AC3-WOFEI.mkv Format : Matroska File size : 2.32 GiB Duration : 1h 37mn Overall bit rate : 3 390 Kbps Encoded date : UTC 2010-08-21 15:21:06 Writing application : mkvmerge v3.4.0 ('Rapunzel') 编译于 May 15 2010 09:38:20 Writing library : libebml v0.8.0 + libmatroska v0.9.0 Video #1 ID : 1 Format : AVC Format/Info : Advanced Video Codec Format profile : [email protected] Format settings, CABAC : Yes Format settings, ReFrames : 4 frames Muxing mode : Container [email protected] Codec ID : V_MPEG4/ISO/AVC Duration : 1h 37mn Bit rate : 2 682 Kbps Nominal bit rate : 2 746 Kbps Width : 1 280 pixels Height : 720 pixels Display aspect ratio : 16:9 Frame rate : 23.976 fps Resolution : 8 bits Colorimetry : 4:2:0 Scan type : Progressive Bits/(Pixel*Frame) : 0.121 Stream size : 1.83 GiB (79%) Writing library : x264 core 98 r1649 c54c47d Encoding settings : cabac=1 / ref=4 / deblock=1:-1:-1 / analyse=0x3:0x113 / me=umh / subme=6 / psy=1 / psy_rd=1.00:0.00 / mixed_ref=1 / me_range=16 / chroma_me=1 / trellis=2 / 8x8dct=1 / cqm=0 / deadzone=21,11 / fast_pskip=1 / chroma_qp_offset=-2 / threads=6 / sliced_threads=0 / nr=0 / decimate=1 / interlaced=0 / constrained_intra=0 / bframes=3 / b_pyramid=0 / b_adapt=1 / b_bias=0 / direct=3 / weightb=1 / weightp=2 / keyint=250 / keyint_min=25 / scenecut=40 / intra_refresh=0 / rc_lookahead=40 / rc=2pass / mbtree=1 / bitrate=2746 / ratetol=1.0 / qcomp=0.60 / qpmin=10 / qpmax=51 / qpstep=4 / cplxblur=20.0 / qblur=0.5 / vbv_maxrate=50000 / vbv_bufsize=50000 / ip_ratio=1.40 / aq=1:1.00 / nal_hrd=none Language : English Audio #2 ID : 2 Format : AC-3 Format/Info : Audio Coding 3 Codec ID : A_AC3 Duration : 1h 37mn Bit rate mode : Constant Bit rate : 448 Kbps Channel(s) : 6 channels Channel positions : Front: L C R, Surround: L R, LFE Sampling rate : 48.0 KHz Stream size : 314 MiB (13%) Title : 英语 Audio #3 ID : 3 Format : AC-3 Format/Info : Audio Coding 3 Codec ID : A_AC3 Duration : 1h 37mn Bit rate mode : Constant Bit rate : 192 Kbps Channel(s) : 2 channels Channel positions : L R Sampling rate : 48.0 KHz Stream size : 134 MiB (6%) Title : 普通话 Text #4 ID : 4 Format : SSA Codec ID : S_TEXT/SSA Codec ID/Info : Sub Station Alpha Title : 中英字幕 Text #5 ID : 5 Format : SSA Codec ID : S_TEXT/SSA Codec ID/Info : Sub Station Alpha Title : 英中字幕 Text #6 ID : 6 Format : UTF-8 Codec ID : S_TEXT/UTF8 Codec ID/Info : UTF-8 Plain Text Title : 中文字幕 Text #7 ID : 7 Format : UTF-8 Codec ID : S_TEXT/UTF8 Codec ID/Info : UTF-8 Plain Text Title : 英文字幕
convert.freelrc.com 云音乐格式在线转换 QMC转MP3 QMC0转MP3 QMC3转MP3 QMCOGG转OGG QMCFLAC转FLAC NCM转MP3