飞鸟娱乐(bbs.hdbird.com).刀锋战士3部曲.720P.双语字幕£柏林

Torrent Base Info

Title:
飞鸟娱乐(bbs.hdbird.com).刀锋战士3部曲.720P.双语字幕£柏林
Total size:
7.08 GB
Create Time:
2010-06-05 08:00:47
Total Files:
17

Guess You Like

Files in this torrent

  • 飞鸟娱乐(bbs.hdbird.com).刀锋战士3部曲.720P.双语字幕£柏林.torrent
  • 飞鸟娱乐(bbs.hdbird.com).刀锋战士3部曲.720P.双语字幕£柏林
    • 弹弹堂-远征的召唤.url (317 B)
    • 刀锋战士1 Blade.1998.BluRay.720p.x264.AC3-HDiY.jpg (162 KB)
    • 刀锋战士1 Blade.1998.BluRay.720p.x264.AC3-HDiY.mkv (2.72 GB)
    • 刀锋战士1.jpg (244 KB)
    • 刀锋战士2 BladeII.2002.BluRay.720p.x264.AC3-HDiY.jpg (163 KB)
    • 刀锋战士2 BladeII.2002.BluRay.720p.x264.AC3-HDiY.mkv (2.18 GB)
    • 刀锋战士2.jpg (227 KB)
    • 刀锋战士3 Blade.Trinity.2004.BluRay.720p.x264.AC3-HDiY.jpg (139 KB)
    • 刀锋战士3 Blade.Trinity.2004.BluRay.720p.x264.AC3-HDiY.mkv (2.18 GB)
    • 刀锋战士3.jpg (243 KB)
    • 刀锋战士3部曲.txt (17.0 KB)
    • 德克萨斯扑克游戏.url (272 B)
    • 飞鸟娱乐@bbs.wofei.net.txt (1.06 KB)
    • 飞鸟娱乐高清电影.url (272 B)
    • 飞鸟娱乐网址更新器.rar (122 KB)
    • 飞鸟娱乐主页.htm (5.99 KB)
    • 小浪影视.url (270 B)

Torrent Recommendation

2.47 GB
2015-12-22 08:48:54
1.73 GB
2016-02-26 12:41:47
2.53 GB
2013-04-13 07:11:02
1.27 GB
2015-02-01 06:40:13
3.43 GB
2016-11-29 05:14:27
2.4 GB
2013-12-14 09:56:16
2.73 GB
2014-08-29 10:29:48
2.23 GB
2015-05-17 03:58:26
2.62 GB
2017-06-12 11:22:13
2.4 GB
2016-07-15 09:45:00
1.98 GB
2016-08-21 01:42:36
3.01 GB
2016-02-03 02:04:08
1.48 GB
2015-08-01 02:00:11
3 GB
2015-01-09 17:00:55
1.5 GB
2014-02-11 06:13:36
23.9 GB
2016-05-15 17:10:29
970 MB
2014-08-03 11:14:18
443 MB
2007-08-03 19:13:36
1.27 GB
2015-11-05 07:20:25

Torrent Description

Info hash
F04C47B93119AB427A15AF34DE89C6DF6657B71D
Category
Categories > Movies torrents > Action torrents
Seeds
0
Leechers
0
Health
Torrent language
English
Total Size
7.08 GB
Torrent added
2010-06-18 16:40:20

Torrent Description

Names
Blade/刀锋战士/幽灵刺客
Caption
【HDiY工作组】刀锋战士3部曲 Blade.1998-2004.BluRay.720p.x264.AC3-HDiY 双语字幕
Year
1998
Nation
美国
Category
动作/恐怖/惊悚
Language
英语
Video Size
1280x720【编码格式】:x264+
Director
斯蒂芬·诺林顿 Stephen Norrington
Starring
韦斯利·斯奈普 Wesley Snipes .... Blade/Eric Brooks The Daywalker/斯蒂芬·多夫 Stephen Dorff .... Deacon Frost/克里斯·克里斯托弗森 Kris Kristofferson .... Abraham Whistler/Bushe Wright .... Dr. Karen Jenson/Donal Logue .... Quinn/Udo Kier .... Vampire Elder Dragonetti/Arly Jover .... Mercury/Traci Lords .... Racquel/Kevin Patrick Walls .... Officer Krieger/Tim Guinee .... Dr. Curtis Webb/Sanaa Lathan .... Vanessa Brooks/Eric Edwards .... Pearl/Donna Wong .... Nurse/Carmen Thomas .... Senior Resident/Shannon Lee .... Resident/※※※※※※※ 资料信息 ※※※※※※※
刀锋战士自小就被专门打造新式武器的吸血鬼猎人惠斯特(克里斯多佛森饰)收养,专门出入有吸血鬼出没的场所,拯救即将被消灭吞噬的人类,凭着他驾骑着银翼机车,手持无敌火力的巨型火焰枪,以及无敌旋风刀和身后背负着的那把长剑,不死的无敌战神刀锋战士所向披靡,只要他一出现,躲藏在人群当中的吸血鬼将无所遁形。 于是,在这个未来的世界中,刀锋战士成了人类和吸血鬼双方争夺生存空间下最勇猛的正义战士,也因此,吸血鬼领袖佛斯特(史蒂芬德尔饰)处心积虑要除去这心头大患,以完成他一统天下的大梦,他先利用刀锋战士的心理弱点给他致命的攻击,原来,刀锋出身自被吸血鬼血液浸满子宫,也成了半个吸血鬼,必须随时克制着自己对血的渴望。 佛特斯先是邀请刀锋战士加入邪恶势力的一方,只要他们两方联手,相信没有人可以逃过他们的力量,然而刀锋战士作为献祭品以请出血王,增强自己的力量。在正邪双方的互斗之下,究竟谁才能获得最后的胜利? 幕后: 影片由1973年风靡美国的漫画Marvel Comics第一次改编登上大银幕,事实证明四分之一个世纪的等待是值得的。Blade一角由动作明星Wesley Snipe担纲,而为Blade量身订做武器的暴躁工匠Abraham由六七十年代的著名歌星Kris Kristofferson出演。片中的特技效果令人印象深刻,与原着的乖戾气氛相得益彰。心理承受能力较强的观众会发现,这是1998年最能满足他们关于阴暗的需要的影片。 ※※※※※※※ 参数信息 ※※※※※※ D:\D:\HDiY-MKV\飞鸟娱乐(bbs.hdbird.com).刀锋战士3部曲.720P.双语字幕£柏林\刀锋战士1 Blade.1998.BluRay.720p.x264.AC3-HDiY.mkv General Complete name : D:\HDiY-MKV\飞鸟娱乐(bbs.hdbird.com).刀锋战士3部曲.720P.双语字幕£柏林\刀锋战士1 Blade.1998.BluRay.720p.x264.AC3-HDiY.mkv Format : Matroska File size : 2.72 GiB Duration : 2h 0mn Overall bit rate : 3 240 Kbps Movie name : Recoded By HDiY Team Encoded date : UTC 2010-06-01 10:41:04 Writing application : mkvmerge v2.9.9 ('Tutu') built on Nov 25 2009 21:13:32 Writing library : libebml v0.7.9 + libmatroska v0.8.1 Video #1 ID : 1 Format : AVC Format/Info : Advanced Video Codec Format profile : [email protected] Format settings, CABAC : Yes Format settings, ReFrames : 6 frames Muxing mode : Container [email protected] Codec ID : V_MPEG4/ISO/AVC Duration : 2h 0mn Bit rate : 2 727 Kbps Nominal bit rate : 2 790 Kbps Width : 1 280 pixels Height : 720 pixels Display aspect ratio : 16:9 Frame rate : 23.976 fps Resolution : 8 bits Colorimetry : 4:2:0 Scan type : Progressive Bits/(Pixel*Frame) : 0.123 Stream size : 2.29 GiB (84%) Title : [email protected] Writing library : x264 core 80 r1376M 3feaec2 Encoding settings : cabac=1 / ref=6 / deblock=1:0:0 / analyse=0x3:0x133 / me=umh / subme=6 / psy=1 / psy_rd=1.0:0.0 / mixed_ref=0 / me_range=24 / chroma_me=1 / trellis=2 / 8x8dct=1 / cqm=1 / deadzone=21,11 / fast_pskip=0 / chroma_qp_offset=-2 / threads=3 / sliced_threads=0 / nr=0 / decimate=0 / mbaff=0 / constrained_intra=0 / bframes=6 / b_pyramid=2 / b_adapt=2 / b_bias=4 / direct=2 / wpredb=1 / wpredp=2 / keyint=250 / keyint_min=25 / scenecut=40 / rc_lookahead=40 / rc=2pass / mbtree=1 / bitrate=2790 / ratetol=0.5 / qcomp=0.60 / qpmin=10 / qpmax=51 / qpstep=4 / cplxblur=20.0 / qblur=0.5 / ip_ratio=1.40 / aq=1:1.00 Language : English Audio #2 ID : 2 Format : AC-3 Format/Info : Audio Coding 3 Codec ID : A_AC3 Duration : 2h 0mn Bit rate mode : Constant Bit rate : 448 Kbps Channel(s) : 6 channels Channel positions : Front: L C R, Surround: L R, LFE Sampling rate : 48.0 KHz Stream size : 385 MiB (14%) Title : English Language : English Text #3 ID : 3 Format : ASS Codec ID : S_TEXT/ASS Codec ID/Info : Advanced Sub Station Alpha Title : Bilingual Subtitles Language : Chinese Text #4 ID : 4 Format : ASS Codec ID : S_TEXT/ASS Codec ID/Info : Advanced Sub Station Alpha Title : Bilingual Subtitles Language : English Text #5 ID : 5 Format : ASS Codec ID : S_TEXT/ASS Codec ID/Info : Advanced Sub Station Alpha Title : Chinese Subtitles Language : Chinese Text #6 ID : 6 Format : ASS Codec ID : S_TEXT/ASS Codec ID/Info : Advanced Sub Station Alpha Title : English Subtitles Language : English ※※※※※※※ 截图信息 ※※※※※※※ ※※※※※※※ 影片信息 ※※※※※※※
NCM格式转换为MP3格式