飞鸟娱乐(bbs.wofei.net).休旅任务.720P.中英字幕

Torrent Base Info

Title:
飞鸟娱乐(bbs.wofei.net).休旅任务.720P.中英字幕
Total size:
2.05 GB
Create Time:
2010-01-04 05:45:52
Total Files:
9

Guess You Like

Files in this torrent

  • 飞鸟娱乐(bbs.wofei.net).休旅任务.720P.中英字幕.torrent
  • 飞鸟娱乐(bbs.wofei.net).休旅任务.720P.中英字幕
    • [email protected]飞鸟娱乐.txt (1.06 KB)
    • 飞鸟网-和浪子一起来开心农场偷菜吧.url (305 B)
    • 飞鸟娱乐(bbs.wofei.net).休旅任务.720P.中英字幕.jpg (164 KB)
    • 飞鸟娱乐-边看电影边学英语,娱乐学习两不误.url (271 B)
    • 飞鸟娱乐主页-下载免费电影的绝佳选择!.htm (5.99 KB)
    • 和漂亮美眉亲密接触.url (272 B)
    • 小浪影视-下载中英字幕电影的好地方.url (270 B)
    • 休旅任务 Runaway.Vacation.2006.BluRay.720p.x264.AC3-WOFEI.jpg (286 KB)
    • 休旅任务 Runaway.Vacation.2006.BluRay.720p.x264.AC3-WOFEI.mkv (2.05 GB)

Torrent Recommendation

1.82 GB
2016-03-06 16:21:57
2.03 GB
2016-10-09 09:27:38
767 MB
2014-03-13 12:06:34
10.2 GB
2015-09-21 03:21:19
521 MB
2007-11-18 07:26:45
1.6 GB
2016-05-06 04:39:54
264 MB
None
1.39 GB
2013-08-14 13:09:24
4.23 GB
2016-08-31 03:32:56
2.06 GB
2017-02-18 01:15:09
2.09 GB
2014-09-07 00:42:19
3.02 GB
2016-04-08 00:55:18
18.9 GB
2017-04-14 11:58:48
1.08 GB
2014-07-19 09:41:56
3.74 GB
2016-07-14 20:25:28
1.43 GB
2014-09-11 10:39:39
8.04 GB
2016-12-02 10:32:54
1.5 GB
2016-09-20 03:21:57
530 MB
2008-05-31 21:22:32

Torrent Description

Names
RV/休旅任务/旅行车/中英字幕/中文字幕/英中字幕/英文字幕
Caption
【飞鸟影视BT组】休旅任务 Runaway.Vacation.2006.BluRay.720p.x264.AC3-WOFEI 中英字幕
Year
2006
Nation
美国
Category
冒险/喜剧/家庭
Language
英语
File Format
x264 + AC3
Video Size
1280 x 720
File Size
1CD 2.05G
Director
巴里·索南菲尔德 Barry Sonnenfeld
Starring
罗宾·威廉斯 Robin Williams .... Bob McNeive/杰夫·丹尼尔斯 Jeff Daniels ..../威尔·阿尔奈特 Will Arnett .... Todd/Rob LaBelle .... Larry Murphy/Kristin Chenoweth .... Mary Jo/Brendan Fletcher .... Howie/Tony Hale .... Frank/Cheryl Hines ..../布赖恩·豪 Brian Howe .... Marty/Kirsten Williamson .... Tammy/Chloe Sonnenfeld .... Moon/乔什·哈切森 Josh Hutcherson .... Carl McNeive/Hunter Parrish .... Earl/Paul Anthony .... Maynard/JoJo .... Cassie McNeive
◇ 剧情:爆笑家庭旅行 工作狂老爸鲍勃(罗宾·威廉姆斯),总是为了工作牺牲和家人享受天伦之乐的时间。而终于全家计划要前往夏威夷度假,好培养一下疏远已久的家庭情感,但没想到,鲍勃的工作又出现状况,非他亲自前往参加一个国内会议不可,眼见家庭团聚计划又要跑堂! 抓破头皮的鲍勃急中生智,决定不告诉孩子们这个坏消息。他租下一台长相怪异的移动房屋休旅车,好不容易说服全家将出国旅游的行程从热带改成了科罗拉多州的野外露营,当然,那个鸟不生蛋的地方就是鲍勃必须开会的地点。拖着极端不情愿的妻子杰米、15岁的女儿凯茜和12岁的儿子卡尔,一家人磕磕碰碰上了路。 可一路上,一切能出状况的东西全冒了出来--从未使用过这样的休旅工具,让活宝老爹手忙脚乱不断闹笑话;而休旅车上不舒服的生活更是让习惯享受的孩子们抱怨连连;而途中出现的怪朋友高利克一家,更将让全家人陷入啼笑皆非的窘境!究竟工作狂老爸究竟能不能同时完成他拯救家庭和公司大业的双重高难任务呢? ◇ 看点:可爱老爹罗宾·威廉姆斯 俗话说得好,演悲剧容易,演喜剧难,而演喜剧要让人真正开怀大笑更难!这年头咯吱人乐的喜剧片不少,可要保持金字招牌、老少咸宜还能时时保你咧嘴大笑的十个指头就能数清楚,54岁的老爹罗宾·威廉姆斯就算一个。虽然近年来有些厌倦了逗乐,开始拓展别样天地,甚至连《儿女一箩筐》那样的圣诞存钱罐他也不愿意碰,但喜剧盛名在外的他,还就能让家庭观众认他那张脸。 这次老罗宾终于同意继续本色搞笑出演,观众和发行商自然都乐得清闲。不过显见罗宾这次钞票也赚得不容易,又是狂飙山地车,又是解救落难休旅车,一会儿被甩来摔去,一会儿又被淋上满身泥浆,大量的惊险动作表演一共报废了5辆休旅车(水淹、铁砸、替身、土埋、挖空,全部下场凄惨)。就冲着老罗宾这奋不顾身冲向前,老骨头差点没摔散的份上,不给可爱老爹捧场也说不过去啊! ◇幕后:黑超特警组转战休旅大房车 在2002年用《黑衣人2》取得了1.9亿多美元的北美票房之后,沉寂了4年的导演巴里·桑尼菲尔德这厢终于杀出了回马枪。这一次,冲上屏幕的不再是黑色西装加墨镜的黑超特警组警探威尔·史密斯和汤米·李·琼斯,而是一辆在海报上飞到洛基山顶的大房车,歇息了4年的桑尼菲尔德,本次没有表现外星人再度入侵地球的野心,只打算用家庭旅行温馨一把。当然,虽然题材转行,但《休旅任务》里比比皆是的家庭惊险镜头,倒也不会埋没他擅长的华丽特技。 除了家庭喜剧金字招牌罗宾·威廉姆斯来保证老少咸宜,流行歌坛小“天才”乔乔的亮相也着实增添了亮丽的风景。这位从两岁起开始唱歌,六岁起开始演戏,如今还没成年的未来小天后,不仅是美国公告牌流行音乐榜最年轻的冠军,也是MTV音乐大奖最小的提名者,首张唱片就销量达白金,还是多个TV秀女主角,俨然明日之星的她如今显然是打定了影视歌全面发展的雄心。 D:\rmvb资源\[高清MKV收藏 www.wofei.net ]\飞鸟娱乐(bbs.wofei.net).休旅任务.720P.中英字幕\休旅任务 Runaway.Vacation.2006.BluRay.720p.x264.AC3-WOFEI.mkv General Complete name : D:\rmvb资源\[高清MKV收藏 www.wofei.net ]\飞鸟娱乐(bbs.wofei.net).休旅任务.720P.中英字幕\休旅任务 Runaway.Vacation.2006.BluRay.720p.x264.AC3-WOFEI.mkv Format : Matroska File size : 2.05 GiB Duration : 1h 38mn Overall bit rate : 2 973 Kbps Encoded date : UTC 2010-01-04 04:36:27 Writing application : mkvmerge v2.4.0 ('Fumbling Towards Ecstasy') built on Oct 11 2008 20:13:15 Writing library : libebml v0.7.7 + libmatroska v0.8.1 Video #1 ID : 1 Format : AVC Format/Info : Advanced Video Codec Format profile : [email protected] Format settings, CABAC : Yes Format settings, ReFrames : 4 frames Muxing mode : Container [email protected] Codec ID : V_MPEG4/ISO/AVC Duration : 1h 38mn Bit rate : 2 466 Kbps Nominal bit rate : 2 521 Kbps Width : 1 280 pixels Height : 720 pixels Display aspect ratio : 16:9 Frame rate : 23.976 fps Resolution : 8 bits Colorimetry : 4:2:0 Scan type : Progressive Bits/(Pixel*Frame) : 0.112 Stream size : 1.70 GiB (83%) Writing library : x264 core 68 r1183M f21daff Encoding settings : cabac=1 / ref=4 / deblock=1:-1:-1 / analyse=0x3:0x113 / me=umh / subme=7 / psy_rd=1.0:0.0 / mixed_ref=1 / me_range=16 / chroma_me=1 / trellis=2 / 8x8dct=1 / cqm=0 / deadzone=21,11 / chroma_qp_offset=-2 / threads=6 / nr=0 / decimate=1 / mbaff=0 / bframes=3 / b_pyramid=0 / b_adapt=1 / b_bias=0 / direct=3 / wpredb=1 / keyint=250 / keyint_min=25 / scenecut=40 / rc=2pass / bitrate=2521 / ratetol=1.0 / qcomp=0.60 / qpmin=10 / qpmax=51 / qpstep=4 / cplxblur=20.0 / qblur=0.5 / vbv_maxrate=50000 / vbv_bufsize=50000 / ip_ratio=1.40 / pb_ratio=1.30 / aq=1:1.00 Language : English Audio #2 ID : 2 Format : AC-3 Format/Info : Audio Coding 3 Codec ID : A_AC3 Duration : 1h 38mn Bit rate mode : Constant Bit rate : 448 Kbps Channel(s) : 6 channels Channel positions : Front: L C R, Surround: L R, LFE Sampling rate : 48.0 KHz Stream size : 317 MiB (15%) Title : 英语原声 Text #3 ID : 3 Format : SSA Codec ID : S_TEXT/SSA Codec ID/Info : Sub Station Alpha Title : 中英字幕 Text #4 ID : 4 Format : SSA Codec ID : S_TEXT/SSA Codec ID/Info : Sub Station Alpha Title : 英中字幕 Text #5 ID : 5 Format : SSA Codec ID : S_TEXT/SSA Codec ID/Info : Sub Station Alpha Title : 中文字幕 Text #6 ID : 6 Format : SSA Codec ID : S_TEXT/SSA Codec ID/Info : Sub Station Alpha Title : 英文字幕 Text #7 ID : 7 Format : UTF-8 Codec ID : S_TEXT/UTF8 Codec ID/Info : UTF-8 Plain Text Title : 中英字幕
pdf.worthsee.com PDF合并 PDF选页 PDF提取图片 PDF转HTML PDF分成单页 PDF提取文字