Kano.2014.720p.BluRay.x264-WiKi

Torrent Base Info

Title:
Kano.2014.720p.BluRay.x264-WiKi
Total size:
9.05 GB
Create Time:
2014-12-24 10:44:51
Total Files:
4

Guess You Like

Files in this torrent

  • Kano.2014.720p.BluRay.x264-WiKi.torrent
  • Kano.2014.720p.BluRay.x264-WiKi
    • Kano.2014.720p.BluRay.x264-WiKi.mkv (9 GB)
    • Kano.2014.720p.BluRay.x264-WiKi.nfo (4.45 KB)
    • RARBG.com.txt (34 B)
    • Sample
      • Kano.2014.720p.BluRay.x264-WiKi.sample.mkv (50.6 MB)

Torrent Recommendation

2.21 GB
2017-01-09 12:24:12
3.79 GB
2015-07-10 10:26:47
5.5 GB
2014-09-03 01:45:29
7.52 GB
2014-07-26 15:39:46
2.85 GB
2014-03-14 06:09:10
637 MB
2008-07-12 06:54:26
862 MB
2008-05-08 03:26:35
1008 MB
2015-04-27 05:07:24
1.32 GB
2015-10-04 11:07:12
3.99 GB
2017-04-02 16:27:26
1.94 GB
2016-08-05 17:27:29
2.29 GB
2016-12-02 07:10:22
7.65 GB
2015-01-17 18:35:29
1 GB
2013-06-04 11:39:24
461 MB
2008-09-05 03:15:59
1.88 GB
2013-04-04 19:05:36
1.91 GB
2016-02-25 15:04:32
1.58 GB
2013-09-19 12:39:31
808 MB
2014-03-19 07:09:07

Torrent Description

Movie
Kano
Detected quality
720p
Genres
Drama
Languages
Chinese
Subtitles
Chinese
Title
Kano 2014 720p BluRay x264-WiKi
UpNum
+74
DownNum
-8
Category
Movies > Highres Movies
Kano.2014.720p.BluRay.x264-WiKi



NAME.................: Kano
GENRE................: Biography | Drama | History
RATiNG...............: 8.3/10 from 899 users
iMDB.................: http://www.imdb.com/title/tt2247566
RELEASE DATE.........: 2014-12-22
ENCODE BY............: Jubowo @ WiKi
RUNTiME..............: 3h:04m:43s
FiLE SiZE............: 9.0 GiB
ViDEO CODEC..........: x264 @ 6336 Kbps
AUDiO CODEC..........: Multiple languages DD 5.1 @ 640 Kbps
FRAMERATE............: 23.976 fps
RESOLUTiON...........: 1280x536
SOURCE...............: 1080p Blu-ray AVC TrueHD 7.1-TTG
SUBTiTLES............: CHS_CHT

Screens:
image
image
image
image
image
image

[mediainfo]

Video
ID : 1
Format : AVC
Format/Info : Advanced Video Codec
Format profile : [email protected]
Format settings, CABAC : Yes
Format settings, ReFrames : 12 frames
Codec ID : V_MPEG4/ISO/AVC
Duration : 3h 4mn
Bit rate : 6 336 Kbps
Width : 1 280 pixels
Height : 536 pixels
Display aspect ratio : 2.40:1
Frame rate mode : Constant
Frame rate : 23.976 fps
Color space : YUV
Chroma subsampling : 4:2:0
Bit depth : 8 bits
Scan type : Progressive
Bits/(Pixel*Frame) : 0.385
Stream size : 8.00 GiB (89%)
Writing library : x264 core 129 r2245+704+36 8e61944 tMod+MixAQ [[email protected]:2:0 X86_64]
Encoding settings : cabac=1 / ref=12 / deblock=1:-3:-3 / analyse=0x3:0x133 / me=umh / subme=11 / psy=1 / fade_compensate=0.00 / psy_rd=1.05:0.10 / mixed_ref=1 / me_range=32 / chroma_me=1 / trellis=2 / 8x8dct=1 / cqm=0 / deadzone=21,11 / fast_pskip=0 / chroma_qp_offset=-3 / threads=18 / lookahead_threads=3 / sliced_threads=0 / nr=0 / decimate=1 / interlaced=0 / bluray_compat=0 / constrained_intra=0 / fgo=0 / bframes=10 / b_pyramid=2 / b_adapt=2 / b_bias=0 / direct=3 / weightb=1 / open_gop=0 / weightp=2 / keyint=250 / keyint_min=23 / scenecut=40 / intra_refresh=0 / rc_lookahead=80 / rc=2pass / mbtree=1 / bitrate=6336 / ratetol=1.0 / qcomp=0.75 / qpmin=0 / qpmax=69 / qpstep=4 / cplxblur=20.0 / qblur=0.5 / ip_ratio=1.40 / aq=3 / aq-strength=0.80 / aq-sensitivity=10.00 / aq-ifactor=1.00 / aq-pfactor=1.00 / aq-bfactor=1.00 / aq2=0
Language : Multiple languages
Default : Yes
Forced : No
Matrix coefficients : BT.709
Color range : Limited

Audio
ID : 2
Format : AC-3
Format/Info : Audio Coding 3
Mode extension : CM (complete main)
Format settings, Endianness : Big
Codec ID : A_AC3
Duration : 3h 4mn
Bit rate mode : Constant
Bit rate : 640 Kbps
Channel(s) : 6 channels
Channel positions : Front: L C R, Side: L R, LFE
Sampling rate : 48.0 KHz
Bit depth : 16 bits
Compression mode : Lossy
Stream size : 846 MiB (9%)
Language : Multiple languages
Default : Yes
Forced : No

Text #1
ID : 3
Format : UTF-8
Codec ID : S_TEXT/UTF8
Codec ID/Info : UTF-8 Plain Text
Title : Simplified
Language : Chinese
Default : Yes
Forced : No

Text #2
ID : 4
Format : UTF-8
Codec ID : S_TEXT/UTF8
Codec ID/Info : UTF-8 Plain Text
Title : Traditional
Language : Chinese
Default : No
Forced : No

Menu
00:00:00.000 : en:00:00:00.000
00:08:32.011 : en:00:08:32.011
00:18:46.333 : en:00:18:46.333
00:26:32.590 : en:00:26:32.590
00:35:02.558 : en:00:35:02.558
00:42:06.148 : en:00:42:06.148
00:52:15.173 : en:00:52:15.173
01:06:00.331 : en:01:06:00.331
01:17:36.151 : en:01:17:36.151
01:25:12.482 : en:01:25:12.482
01:33:50.499 : en:01:33:50.499
01:41:45.516 : en:01:41:45.516
01:53:23.046 : en:01:53:23.046
02:01:41.627 : en:02:01:41.627
02:08:10.265 : en:02:08:10.265
02:16:23.175 : en:02:16:23.175
02:27:34.637 : en:02:27:34.637
02:38:42.804 : en:02:38:42.804
02:47:20.321 : en:02:47:20.321
02:58:34.161 : en:02:58:34.161


[/mediainfo]

Torrent Description

Names
Kano/Kano
Caption
[720P][12-24] KANO Kano.2014.720p.BluRay.x264-WiKi
Year
2014
Nation
中国台湾
Category
传记/剧情/历史
Language
日语/闽南语/阿美族语/客家话字 幕简体中文/繁体中文
File Format
X264 + DTS
File Size
9.0 GiB
Director
马志翔
Starring
永濑正敏/吉冈尊礼/曹佑宁/谢竣晟/大仓裕真/伊川东吾/坂井真纪/于卉乔/范逸臣/大泽隆夫
一群奋战不懈的野球少年们,朝着梦想前进的热血故事!故事描述1929年台湾诞生了一支由汉民族、大和民族和原住民族组成的嘉农棒球队,在新教练以「进军甲子园」为目标,用斯巴达式的严厉态度训练球员,原本散漫的球队在教练一年多的魔鬼训练与屡屡落败的刺激下,渐渐激发了球员的求胜意志与前进甲子园的决心。1931年,嘉农棒球队一路过关斩将,打败由日本人所组的常胜冠军「台北商业队」,成为首支在浊水溪以南并且赢得全岛冠军的野球队外,更代表台湾去日本征战甲子园,在一望无际的甲子园的草地上,五万五千名观众面前,嘉农球员们奋而不懈的决心与永不放弃的精神感动了现场所有观众,不论输赢,嘉农已经缔造了历史,不畏惧地勇敢挑战自我,无形中却得到真正的胜利。远远地,观众席上传来一阵奋力呼喊:「英雄…战场…天下…嘉农」。

Torrent Description

Names
Kano/嘉农
Caption
[720P][12-24] 嘉农 Kano.2014.720p.BluRay.x264-WiKi
Year
2014
Nation
中国台湾
Category
传记/剧情/历史
Language
日语/闽南语/阿美族语/客家话字 幕简体中文/繁体中文
File Format
X264 + DD5.1
File Size
9.00 GiB
Director
Chih-Hsiang Ma (as Umin Boya)
Starring
Togo Igawa ...Coach Satô/Takao Ohsawa ...Yôichi Hatta, the engineer/Masatoshi Nagase ...Coach Hyôtarô Kondô/Maki Sakai ...Mrs. Kondô/Chiao Chiao/Tender Huang ...Young Doctor - Jing's Husband/Yu-Ning Tsao ...Meishô 'Akira' Go, the pitcher/Kotaro Yamamuro/Bamboo Chu-Sheng Chen ...Farmer (as Bamboo Chen)/Yuma Okura/Man-Chiao Wang ...So's grandmother/Hsing-Chen Yeh ...Ching/Yun-Hao Chou/You-Fan Tsai/Sonrei Yoshioka ...Hamada Jimino, teacher
本片以台湾史上第一支由台湾人、日本人和原住民组成的棒球队,打进甲子园决赛的嘉农棒球队为背景,描写1931台年湾嘉义农林棒球队的传奇故事,当年这支台湾球队打进了日本“甲子园”,日本棒坛更给予其“天下嘉农”这群奋战不懈的野球少年们极高评价! 在台湾红叶棒球队风靡全世界之前,1929年的台湾曾诞生了一支由日本人、台湾人和原住民组成的嘉农棒球队,新教练以“进军甲子园”为目标,用斯巴达式的严厉态度训练球员,原本散漫的球队在教练一年多的魔鬼训练与屡屡落败的刺激下,渐渐激发了球员的求胜意志与前进甲子园的决心。 1931年,嘉农棒球队一路过关斩将,打败由日本人所组的常胜冠军“台北商业队”,成为首支在浊水溪以南并且赢得全岛冠军的野球队外,更代表台湾去日本征战甲子园,在一望无际的甲子园的草地上,五万五千名观众面前,嘉农球员们奋而不懈的决心与永不放弃的精神感动了现场所有观众,不论输赢,嘉农已经缔造了历史,不畏惧地勇敢挑战自我,无形中却得到真正的胜利。远远地,观众席上传来一阵奋力呼喊:“英雄!战场!天下!嘉农”。 .Comparisons Source WiKi )
audio.worthsee.com/convert 音频格式文件转换
ncm.freelrc.com NCM TO MP3