X-Men.Days.of.Future.Past.2014.HDRip.720p.PROPER.KORSUB.x264.AAC-RARBG

Torrent Base Info

Title:
X-Men.Days.of.Future.Past.2014.HDRip.720p.PROPER.KORSUB.x264.AAC-RARBG
Total size:
3.89 GB
Create Time:
2015-11-30 17:23:41
Total Files:
4

Guess You Like

Files in this torrent

  • X-Men.Days.of.Future.Past.2014.HDRip.720p.PROPER.KORSUB.x264.AAC-RARBG.torrent
  • X-Men.Days.of.Future.Past.2014.HDRip.720p.PROPER.KORSUB.x264.AAC-RARBG
    • X-Men.Days.of.Future.Past.2014.HDRip.720p.PROPER.KORSUB.x264.AAC-RARBG.mp4 (3.89 GB)
    • RARBG.com.mp4 (992 KB)
    • X-Men.Days.of.Future.Past.2014.HDRip.720p.PROPER.KORSUB.x264.AAC-RARBG.nfo (3.81 KB)
    • RARBG.com.txt (34 B)

Torrent Recommendation

1.94 GB
2015-07-30 00:57:14
28.8 GB
2015-02-10 14:32:36
1.41 GB
2016-07-24 08:01:05
971 MB
2016-12-27 14:52:29
1.62 GB
2016-10-07 09:05:00
2.98 GB
2016-11-04 12:26:56
1.54 GB
2013-02-23 07:51:27
5.51 GB
2015-11-20 07:31:13
754 MB
2008-09-01 07:42:10
813 MB
2016-12-26 11:59:16
2.04 GB
2010-06-26 15:45:11
2.48 GB
2016-09-04 02:53:48
1013 MB
2013-10-09 04:36:03
1.96 GB
2016-04-21 11:57:44
1.19 GB
2013-11-02 19:04:14
3.62 GB
2016-05-26 14:19:42
1.72 GB
2016-07-23 02:32:56
1.47 GB
2016-01-13 15:02:35
4.62 GB
2015-03-29 15:25:42
1.05 GB
2014-09-14 03:57:35

Torrent Description

Movie
X-Men: Days of Future Past
Detected quality
720p
Genres
Action
Director
Bryan Singer
Language
English
Subtitles
Korean
Title
XMEN Days of Future Past 2014 HDRip 720p PROPER KORSUB x264 AAC-RARBG
UpNum
+226
DownNum
-12
Category
Movies
image
image
image
image
image
image
image
image
image
image
image
image



[mediainfo]

Video
ID : 1
Format : AVC
Format/Info : Advanced Video Codec
Format profile : [email protected]
Format settings, CABAC : Yes
Format settings, ReFrames : 4 frames
Codec ID : avc1
Codec ID/Info : Advanced Video Coding
Duration : 2h 11mn
Bit rate : 4 000 Kbps
Width : 1 280 pixels
Height : 688 pixels
Display aspect ratio : 1.85:1
Frame rate mode : Constant
Frame rate : 30.181 fps
Color space : YUV
Chroma subsampling : 4:2:0
Bit depth : 8 bits
Scan type : Progressive
Bits/(Pixel*Frame) : 0.150
Stream size : 3.68 GiB (95%)
Writing library : x264 core 142 r2438 af8e768
Encoding settings : cabac=1 / ref=4 / deblock=1:-1:-1 / analyse=0x3:0x113 / me=umh / subme=9 / psy=1 / psy_rd=1.00:0.15 / mixed_ref=1 / me_range=16 / chroma_me=1 / trellis=2 / 8x8dct=1 / cqm=0 / deadzone=21,11 / fast_pskip=1 / chroma_qp_offset=-3 / threads=8 / lookahead_threads=2 / sliced_threads=0 / nr=0 / decimate=1 / interlaced=0 / bluray_compat=0 / constrained_intra=0 / bframes=3 / b_pyramid=2 / b_adapt=2 / b_bias=0 / direct=3 / weightb=1 / open_gop=0 / weightp=2 / keyint=250 / keyint_min=25 / scenecut=40 / intra_refresh=0 / rc_lookahead=50 / rc=abr / mbtree=1 / bitrate=4000 / ratetol=1.0 / qcomp=0.60 / qpmin=0 / qpmax=69 / qpstep=4 / vbv_maxrate=31250 / vbv_bufsize=31250 / nal_hrd=none / filler=0 / ip_ratio=1.40 / aq=2:1.00

Audio
ID : 2
Format : AAC
Format/Info : Advanced Audio Codec
Format profile : LC
Codec ID : 40
Duration : 2h 11mn
Duration_LastFrame : -11ms
Bit rate mode : Constant
Bit rate : 224 Kbps
Channel(s) : 2 channels
Channel(s)_Original : 6 channels
Channel positions : Front: L C R, Side: L R, LFE
Sampling rate : 48.0 KHz
Compression mode : Lossy
Stream size : 210 MiB (5%)
Language : English



[/mediainfo]

Torrent Description

Names
X-Men: Days of Future Past/X战警:逆转未来/X战警前传2/X战警:未来昔日(台)/变种特攻:未来同盟战(港)
Caption
[HDRIP][08-17] X战警:逆转未来/变种特攻:未来同盟战(港) X-Men.Days.of.Future.Past.2014.HDRip.720p.PROPER.KORSUB.x264.
Year
2014
Nation
美国/英国
Category
动作/冒险/奇幻
Language
英语字 幕韩文(内嵌)
File Format
x264 + AAC
File Size
1CD 3.89 GiB
Director
布莱恩・辛格 Bryan Singer
Starring
休・杰克曼 Hugh Jackman ....金刚狼罗根 Logan / Wolverine/詹姆斯・麦卡沃伊 James McAvoy ....查尔斯・泽维尔 Charles Xavier/迈克尔・法斯宾德 Michael Fassbender ....艾瑞克・兰谢尔 Erik Lehnsherr / Magneto/詹妮弗・劳伦斯 Jennifer Lawrence ....魔形女瑞雯 Raven / Mystique/彼特・丁拉基 Peter Dinklage ....玻利瓦尔・特拉斯克 Bolivar Trask/尼古拉斯・霍尔特 Nicholas Hoult ....野兽汉克・麦考伊 Hank McCoy / Beast/伊万・彼得斯 Evan Peters ....快银 Pietro Maximoff / Quicksilver/帕特里克・斯图尔特 Patrick Stewart ....X教授 Professor Charles Xavier/伊恩・麦克莱恩 Ian McKellen ....万磁王 Erik Lehnsherr / Magneto - older/哈莉・贝瑞 Halle Berry ....暴风女Ororo Munroe / Storm/艾伦・佩姬 Ellen Page ....幻影猫凯蒂 Kitty Pryde / Shadowcat/乔什・赫尔曼 Josh Helman 威廉・斯特瑞克 William Stryker/范冰冰 Bingbing Fan ....闪烁 Clarice Ferguson / Blink/丹尼尔・库德摩尔 Daniel Cudmore 钢力士 Piotr Rasputin / Colossus/肖恩・阿什莫 Shawn Ashmore ....冰人 Bobby Drake / Iceman/奥马・希 Omar Sy ....毕肖普 Bishop (rumored)/波波・斯图尔特 BooBoo Stewart ....征途 James Proudstar / Warpath/阿丹・坎托 Adan Canto ....黑子 Sunspot/卢卡斯・提尔 Lucas Till 法官 Alex Summers / Havok/伊万・乔尼凯特 Evan Jonigkeit ....蛤蟆Toad/安娜・帕奎因 Anna Paquin ....罗刹女 Marie /Rogue/布兰登・帕德 Brendan Pedder ....天启(彩蛋)/法米克・詹森 Famke Janssen ....琴・格蕾/凤凰女 Jean Grey (uncredited)/詹姆斯・麦斯登 James Marsden ....斯科特・萨默斯/镭射眼/拉里・戴 Larry Day ....General Caris/Thai-Hoa Le ....General Nhuan/Robert Crooks ....Nixon's Aide/Jaa Smith-Johnson ....Mutant soldier/Jason Deline ....News Anchor (uncredited)/Gregg Lowe ....Ink/teve Barry ....Tower 8 Photographer (uncredited)/摩根・莉莉 Morgan Lily ....Young Raven/凯尔希・格兰莫 Kelsey Grammer ....汉克・麦考伊/野兽 Hank McCoy / Beast (rumored)/阿历克斯・伊万诺维奇 Alex Ivanovici ....Quarantine Doctor/Jason Bell ....Trask's Guard (uncredited)/Mark Camacho ....President Nixon/Alexander Felici ....Young Mutant Scavenger/Jan Gerste ....Gwen/Massimo Cannistraro ....Ramone/麦克・道帕德 Mike Dopud ....Pinstripe Mafioso/李・维伦纽夫 Lee Villeneuve ....Black Coast Mafioso/Andreas Apergis ....Col. Sanders/Robert Montcalm .....Vietnam MP Guard/Alain Dahan ....Quarantine Doctor #2/Freddy Bessa ....Quarantine Doctor #3/Patricia Tougas ....Quarantine Nurse/迈克尔・勒纳 Michae
故事发生在并不遥远的未来,X战警遭遇了史上最大的生存危机,他们必须回到过去拯救自己的命运。X战警也许在我们这个时代,是有着最先进基因的生物,但在不久的未来,他们都被“特拉斯克工业”创始人玻利瓦尔・特拉斯克所制造并指挥的新型特种战斗机器人“哨兵”所猎杀,并有着被灭绝的危险。 哨兵机器人可以检测出任何形式的变种类型,而他们的基因则能够让他们瞬间变换和改造自身,从而击败X战警。这使得X战警的唯一希望,便是回到过去,在特拉斯克的研究最终导致他们的灭绝之前,改变历史。 利用幻影猫凯蒂的能力,金刚狼罗根穿越时空开始了这个艰辛的旅程。这一次,他必须联合年轻的变种人领袖X教授,以及他一生的对手万磁王,去找到魔形女,并阻止特拉斯克。时间已经迫在眉睫,在过去,亦在未来,X战警同哨兵机器人的大决战即将展开…… 花絮 .布莱恩・辛格就“时空旅行”这个问题与詹姆斯・卡梅隆展开了两个多小时的讨论。卡梅隆曾导演《终结者》1与2,对另一宇宙和弦理论有不少了解。 .布莱恩・辛格在帕特里克・斯图尔特与伊恩・麦克莱恩巡回演出舞台剧时找到他们,邀请他们出演影片。两人都很吃惊,他们以为法斯宾德与麦卡沃伊已经继承了他们的衣钵,两人对再次回归表示喜悦。 .饰演魔形女的詹妮弗・劳伦斯的化妆准备时间从上一部《X战警:第一课》的8个小时锐减到3-4个小时,劳伦斯表示此次的颜料也更为温和,不过要是能像《阿凡达》一样在脸上贴感应点就更好了! .迈克尔・法斯宾德为了让自己演绎的万磁王更接近伊恩・麦克莱恩,特意反复观摩伊恩的视频,学习他的说话方式与动作。 .饰演反派特拉斯克的彼特・丁拉基说,导演布莱恩・辛格之所以选择他是因为他是个矮人,“我是个矮人,有点像变种人一样,我认为特拉斯克在内心深处对自己是矮人这一事实非常敏感。” .乔什・赫尔曼最初要出演的角色是反派红坦克,不过最终剧本删掉了这个角色,赫尔曼因此成为了年轻版威廉・斯特瑞克――金刚狼的死敌。7编剧西蒙・金伯格说,《X战警:逆转未来》受到了穿越电影《时空大挪移》、《终结者》、《回到未来》和《环形使者》的影响。 .在《X战警2》中饰演夜行者的艾伦・卡明拒绝回归,因为夜行者的上妆准备过程太辛苦了。 .饰演老版万磁王与X教授的伊恩・麦克莱恩与帕特里克・斯图尔特以及饰演年轻版万磁王与X教授的迈克尔・法斯宾德与詹姆斯・麦卡沃伊都在舞台上或者电影中出演过莎士比亚的经典角色――麦克白。 .以詹姆斯・麦卡沃伊为首的年轻剧组成员们在拍摄空隙经常展开BB枪大战,迈克尔・法斯宾德、詹妮弗・劳伦斯等人都是游戏的狂热参与者,而金刚狼休・杰克曼则表示自己不像年轻人们那么疯。 .尽管影片上映前有罗刹女戏份被剪光的传言,最终上映版本中罗刹女还是短暂出现了一下。
convert.freelrc.com 云音乐格式在线转换 QMC转MP3 QMC0转MP3 QMC3转MP3 QMCOGG转OGG QMCFLAC转FLAC NCM转MP3