飞鸟娱乐[bbs.hdbird.com].黑衣女人.720p.中英字幕

Torrent Base Info

Title:
飞鸟娱乐[bbs.hdbird.com].黑衣女人.720p.中英字幕
Total size:
2.05 GB
Create Time:
2012-05-06 06:27:05
Total Files:
9

Guess You Like

Files in this torrent

  • 飞鸟娱乐[bbs.hdbird.com].黑衣女人.720p.中英字幕.torrent
  • 飞鸟娱乐[bbs.hdbird.com].黑衣女人.720p.中英字幕
    • [email protected]飞鸟娱乐.txt (1.27 KB)
    • 飞鸟网-和浪子一起来开心农场偷菜吧.url (281 B)
    • 飞鸟娱乐-边看电影边学英语,娱乐学习两不误.url (272 B)
    • 飞鸟娱乐网址更新器.rar (114 KB)
    • 黑衣女人 The.Woman.in.Black.2012.BluRay.720p.x264.AC3-WOFEI.jpg (188 KB)
    • 黑衣女人 The.Woman.in.Black.2012.BluRay.720p.x264.AC3-WOFEI.mkv (2.05 GB)
    • 黑衣女人.jpg (118 KB)
    • 黑衣女人.txt (9.79 KB)
    • 老调网-下载中英字幕电影的好地方.url (272 B)

Torrent Recommendation

3.05 GB
2016-04-04 23:35:03
27.5 GB
2014-07-26 07:57:51
1.16 GB
2015-04-08 05:23:08
1.21 GB
2017-04-17 03:12:27
952 MB
2014-11-01 10:10:47
5.25 GB
2015-02-26 13:03:35
2.54 GB
2015-10-23 10:29:47
3.02 GB
2015-12-09 00:21:22
2.42 GB
2016-01-14 13:46:21
1.52 GB
2014-02-19 15:31:08
2.11 GB
2015-11-21 03:38:10
2.05 GB
2011-08-05 03:05:15
1.73 GB
2017-06-29 11:59:02
2.15 GB
2017-04-14 08:16:59
4.39 GB
2016-12-24 13:42:28
2.81 GB
2017-01-20 19:23:21
969 MB
2016-06-28 09:03:25

Torrent Description

Names
The Woman In Black/黑衣女人/颤栗黑影(台)/中英字幕/中文字幕/英中字幕/英文字幕
Caption
黑衣女人 The.Woman.in.Black.2012.BluRay.720p.x264.AC3-WOFEI 中英字幕
Year
2012
Nation
英国/加拿大/瑞典
Category
剧情/恐怖/惊悚
Language
英语
File Format
X264 + AC3
Video Size
1280 x 720
File Size
1CD 2.18G
Director
詹姆斯·瓦特金斯 James Watkins
Starring
丹尼尔·雷德克里夫 Daniel Radcliffe ....Arthur Kipps/塞伦·希德 Ciarán Hinds ....Daily/珍妮·麦克蒂尔 Janet McTeer ....Mrs. Daily/Emma Shorey ....Fisher Girl/Molly Harmon ....Fisher Girl/苏菲·斯塔基 Sophie Stuckey ....Stella Kipps/Misha Handley ....Joseph Kipps/杰西卡·瑞恩 Jessica Raine ....Nanny/罗杰·阿拉姆 Roger Allam ....Mr. Bentley/Lucy May Barker ....Nursemaid/Indira Ainger ....Little Girl on Train/Andy Robb ....Doctor/邵恩·杜里 Shaun Dooley ....Fisher/Mary Stockley ....Mrs. Fisher/Alexia Osborne ....Victoria Hardy/Alfie Field ....Tom Hardy/Victor McGuire ....Gerald Hardy/Cathy Sara ....Mrs. Jerome/蒂姆·迈克穆兰 Tim McMullan ....Mr. Jerome/Daniel Cerqueira ....Keckwick/Liz White ....Jennet/Alice Khazanova ....Mrs. Drablow/Ashley Foster ....Nathaniel Drablow/大卫·布克 David Burke ....PC Collins/Aoife Doherty ....Lucy Jerome/Sidney Johnston ....Nicholas Daily
亚瑟·科普斯是一个年轻的律师。他受雇于一个寡妇,要前往一个小乡村处理关于这个寡妇的遗产问题。看上去一切都很正常,可是他并不知道,一场危及生命的浩劫正在向科普斯袭来。 他到达了小镇,可是小镇上的所有人似乎并不欢迎他,他们都希望科普斯能尽快地完成工作后离开。很显然,这个小镇埋藏这不少的秘密。虽然小镇的人们都在和科普斯保持距离,不想让他知道这里曾经发生了什么,但是科普斯还是知道了那栋属于自己客户的老宅子似乎有问题。恍恍惚惚之间,有一个女鬼总是会来骚扰这里的住户,她要在这里找回属于自己的人和属于自己的东西。这个女鬼的行为充满了危险,她甚至连孩子都不放过。 暴露在女鬼的袭击之下,亚瑟·科普斯和他的孩子能够逃过一劫么? 一句话评论 《幼无所依》(No Country for Young Kids)可以作为本片的另一个标题——这是一部经典英伦风格恐怖片的佳作。 ——好莱坞记者报 对传统惊悚风格的掌控达到了炉火纯青的地步—对于老式恐怖片粉丝来说,没有什么比一具保存良好的干尸更令人兴奋的了。 ——时代 自《诺斯法拉图》以来最令人恐惧的凶宅之旅。 ——芝加哥太阳报 如果说导演职业生涯的第二部作品还稍欠火候的话,至少雷德克里夫展现出了令人动容的哀恸。 ——村之声 幕后制作 《黑衣女人》改编自苏珊·希尔出版于1983年的同名恐怖小说,已经不止一次被搬上了大银幕或者是是电视剧,算得上是一个经久不衰的恐怖电影的改编来源。对于这次改编和拍摄,丹尼尔·雷德克里夫做了充分的准备,他阅读了小说,看了老版本的电影,研究了人物等等。而且在《哈利·波特》系列里扮演他父亲的老演员安德尔·罗林就是1989年版《黑衣女人》的主演,巧合之下,亚瑟·科普斯这个角色几乎就是为雷德克里夫定做的一般。雷德克里夫说:“我看了小说,希尔讲了一个很有意思的故事。我很喜欢亚瑟这个人物,因为他和哈利·波特是太不一样了。而且在拍摄的过程中,希尔会不断地到片场来探班,不断地和我们交流故事和人物的细节。我知道她已经提前看到了剪辑出来的电影,看上去她对结果很满意。” 为了能在影片中展示出传统而典型的英式恐怖,导演詹姆斯·瓦特金斯使用了大量的带有哥特风格的布景和道具,甚至连天气,他都设计成了阴暗的和潮湿的。瓦特金斯说:“原着小说是一本细节很丰富的书,里面有着各种各样的细节和奇奇怪怪的道具。所以我们在电影里,就突出了这些内容。一方面这是忠于原着,另一方面这些道具和布景有助于恐怖气氛的展开。因为,直接地在银幕上展示什么僵尸、让人尖叫、喷血浆,都是一些很常规的做法。而用道具,比如说玩具,一些小的物件来做一个恐怖的隐喻和比方,效果则要好得多。”对于导演的指导,丹尼尔·雷德克里夫说:“瓦特金斯是一个很聪明的人,他知道该怎么使用镜头、怎么剪辑、怎么处理音效和光线来制造一种恐怖的感觉。说起来,这是一部很传统的恐怖片,其中有很多悬疑片的影子。虽然有超自然的元素和情节,但是我依然觉得这是一部心理层面上的恐怖片。尤其是他对那栋闹鬼的老宅子的讲述和描绘,在我看来,那简直就是无与伦比的导演技巧的展示。” 影片根据英国小说家苏珊·希尔(Susan Hill)1983年出版的畅销小说改编。小说《黑衣女人》自出版之后很快被改编成话剧,这出话剧被英国媒体评价为“戏剧舞台上最令人激动、最吸引人和最成功的作品”,从而在英国伦敦西区连续上演了20年,其长盛不衰的效应相当惊人。电影版《黑衣女人》的剧本将由《海扁王》编剧简·古德曼执笔。 回归英式传统恐怖片的《黑衣女人》三周占据英国票房榜冠军,四周累积2785万英镑的票房,超过了《小岛惊魂》、《夜访吸血鬼》、《僵尸肖恩》、《28天后》等任何一部英国制片或者有英国影人参与的恐怖片在英国创下的票房。。为这一消息开心的不仅是脱下巫师袍、首次饰演成人角色的丹尼尔·雷德克里夫,还包括重新焕发生机的英国老牌制作公司Hammer Films。 对于恐怖片影迷来说,Hammer Films是个如雷贯耳的名字。这家五六十年代拍摄了《科学怪人弗兰克斯坦》以及一些列克里斯托弗·李主演的《吸血伯爵德古拉》电影,让“Hammer Film”成为形容这一类哥特恐怖类型片的专用词语。然而80年之后Hammer 归于沉寂,直到30年后的2007年才有大张旗鼓地回归。12岁观看等级的《黑衣女人》与以往Hammer“滴血”的哥特恐怖迥然不容,这部影片对于一个经典的英伦鬼故事的出色视觉呈现以及其古典的氛围还是让老式恐怖片的影迷兴奋不已。它会让人想起另一部不太被人提起的英国经典恐怖片《无罪的人》。 Hammer大事记 1934 Hammer Films在伦敦成立,它的创始人是一名喜剧演员,名叫William Hinds,舞台艺名是Will Hammer。 1937 Hammer由于投资不当而破产,只有它的发行部门保存了下来。 1946 当时法律规定影院至少五分之一的时间用于放映英国本土片,Hammer制作一些“快操作的影片”来填补缺口。 1951 与美国制片人Robert Lippert合作进入美国市场,开始制作后来让它成名的恐怖电影。 1955 被当做是“Hammer Horror”的诞生之年。首部作品为《夸特马斯实验》(The Quatermass Xperiment)。 1959到60年代早期 《狼人的诅咒》《吸血鬼之吻》大受美国市场欢迎。 60年代后期 在连续三年纳税超过500万英镑之后得到了女王企业奖。 70年代早期 彩色电视时代的来临大大地冲击了英国电影。 Hammer不得不转手制作一些电视情景喜剧来赚钱, 80年代 Hammer偶尔制作一些电视恐怖片,直到2007年荷兰老板John De Mol出资买下Hammer Films,重新进入电影业。 2007年至今 着手《黑衣女人》、美版《生人勿近》、《入侵隐私》以及《醒木》等恐怖片的制作。 花絮 ·马克·加蒂斯曾被制片公司要求撰写本片的剧本。但是他没有答应纸片公司的这个要求。 ·在《哈利·波特》系列中扮演哈利爸爸的安德尔·罗林,曾经在1989年版本的《黑衣女人》中扮演了本片中丹尼尔·雷德克里夫所扮演的角色。 ·在影片中扮演丹尼尔·雷德克里夫的儿子的小演员在现实生活中真的是丹尼尔·雷德克里夫的教子。让他来出演这个角色的想法是丹尼尔·雷德克里夫提出来的,他认为现实生活中的这种联系有助于他们在影片中演好父子。 I:\rmvb资源\[高清MKV收藏 www.hdbird.com ]\飞鸟娱乐[bbs.hdbird.com].黑衣女人.720p.中英字幕\黑衣女人 The.Woman.in.Black.2012.BluRay.720p.x264.AC3-WOFEI.mkv General Complete name : I:\rmvb资源\[高清MKV收藏 www.hdbird.com ]\飞鸟娱乐[bbs.hdbird.com].黑衣女人.720p.中英字幕\黑衣女人 The.Woman.in.Black.2012.BluRay.720p.x264.AC3-WOFEI.mkv Format : Matroska File size : 2.05 GiB Duration : 1h 35mn Overall bit rate : 3 078 Kbps Encoded date : UTC 2012-05-06 05:57:30 Writing application : mkvmerge v3.4.0 ('Rapunzel') 编译于 May 15 2010 09:38:20 Writing library : libebml v0.8.0 + libmatroska v0.9.0 Video #1 ID : 1 Format : AVC Format/Info : Advanced Video Codec Format profile : [email protected] Format settings, CABAC : Yes Format settings, ReFrames : 4 frames Muxing mode : Container [email protected] Codec ID : V_MPEG4/ISO/AVC Duration : 1h 35mn Bit rate : 2 569 Kbps Nominal bit rate : 2 629 Kbps Width : 1 280 pixels Height : 720 pixels Display aspect ratio : 16:9 Frame rate : 23.976 fps Resolution : 8 bits Colorimetry : 4:2:0 Scan type : Progressive Bits/(Pixel*Frame) : 0.116 Stream size : 1.71 GiB (83%) Writing library : x264 core 120 r2164 da19765 Encoding settings : cabac=1 / ref=4 / deblock=1:-1:-1 / analyse=0x3:0x113 / me=umh / subme=6 / psy=1 / psy_rd=1.00:0.00 / mixed_ref=1 / me_range=16 / chroma_me=1 / trellis=2 / 8x8dct=1 / cqm=0 / deadzone=21,11 / fast_pskip=1 / chroma_qp_offset=-2 / threads=6 / sliced_threads=0 / nr=0 / decimate=1 / interlaced=0 / bluray_compat=0 / constrained_intra=0 / bframes=3 / b_pyramid=0 / b_adapt=1 / b_bias=0 / direct=3 / weightb=1 / open_gop=0 / weightp=2 / keyint=240 / keyint_min=23 / scenecut=40 / intra_refresh=0 / rc_lookahead=40 / rc=2pass / mbtree=1 / bitrate=2629 / ratetol=1.0 / qcomp=0.60 / qpmin=10 / qpmax=51 / qpstep=4 / cplxblur=20.0 / qblur=0.5 / vbv_maxrate=50000 / vbv_bufsize=50000 / nal_hrd=none / ip_ratio=1.40 / aq=1:1.00 Language : English Audio #2 ID : 2 Format : AC-3 Format/Info : Audio Coding 3 Codec ID : A_AC3 Duration : 1h 35mn Bit rate mode : Constant Bit rate : 448 Kbps Channel(s) : 6 channels Channel positions : Front: L C R, Surround: L R, LFE Sampling rate : 48.0 KHz Stream size : 305 MiB (15%) Text #3 ID : 3 Format : SSA Codec ID : S_TEXT/SSA Codec ID/Info : Sub Station Alpha Title : 中英 Text #4 ID : 4 Format : SSA Codec ID : S_TEXT/SSA Codec ID/Info : Sub Station Alpha Title : 英中 Text #5 ID : 5 Format : UTF-8 Codec ID : S_TEXT/UTF8 Codec ID/Info : UTF-8 Plain Text Title : 中文 Text #6 ID : 6 Format : UTF-8 Codec ID : S_TEXT/UTF8 Codec ID/Info : UTF-8 Plain Text Title : 英文
convert.freelrc.com 云音乐格式在线转换 QMC转MP3 QMC0转MP3 QMC3转MP3 QMCOGG转OGG QMCFLAC转FLAC NCM转MP3