飞鸟娱乐[bbs.hdbird.com].加勒比海盗四部曲.720P.中英字幕

Torrent Base Info

Title:
飞鸟娱乐[bbs.hdbird.com].加勒比海盗四部曲.720P.中英字幕
Total size:
13.0 GB
Create Time:
2011-08-24 05:12:04
Total Files:
18

Guess You Like

Files in this torrent

  • 飞鸟娱乐[bbs.hdbird.com].加勒比海盗四部曲.720P.中英字幕.torrent
  • 飞鸟娱乐[bbs.hdbird.com].加勒比海盗四部曲.720P.中英字幕
    • [email protected]飞鸟娱乐.txt (1.27 KB)
    • 飞鸟网-和浪子一起来开心农场偷菜吧.url (281 B)
    • 飞鸟娱乐(bbs.hdbird.com).加勒比海盗.720p.中英字幕.jpg (137 KB)
    • 飞鸟娱乐(bbs.hdbird.com).加勒比海盗2.720p.中英字幕.jpg (173 KB)
    • 飞鸟娱乐(bbs.hdbird.com).加勒比海盗3.720p.中英字幕.jpg (96.6 KB)
    • 飞鸟娱乐(bbs.hdbird.com).加勒比海盗四部曲.720p.中英字幕.txt (28.8 KB)
    • 飞鸟娱乐-边看电影边学英语,娱乐学习两不误.url (272 B)
    • 飞鸟娱乐网址更新器.rar (114 KB)
    • 加勒比海盗(国英双语) Pirates.of.the.Caribbean.At.World's.End.2007.BluRay.720p.x264.AC3-WOFEI.jpg (222 KB)
    • 加勒比海盗(国英双语) Pirates.of.the.Caribbean.The.Curse.of.the.Black.Pearl.2003.BluRay.720p.x264.AC3-WOFEI.mkv (3.18 GB)
    • 加勒比海盗2(国英双语) Pirates.of.the.Caribbean.Dead.Man's.Chest.2006.BluRay.720p.x264.AC3-WOFEI.jpg (239 KB)
    • 加勒比海盗2(国英双语) Pirates.of.the.Caribbean.Dead.Mans.Chest.2006.BluRay.720p.x264.AC3-WOFEI.mkv (3.14 GB)
    • 加勒比海盗3(国英双语) Pirates.of.the.Caribbean.At.Worlds.End.2007.BluRay.720p.x264.AC3-WOFEI.jpg (243 KB)
    • 加勒比海盗3(国英双语) Pirates.of.the.Caribbean.At.Worlds.End.2007.BluRay.720p.x264.AC3-WOFEI.mkv (3.42 GB)
    • 加勒比海盗4 Pirates.Of.The.Caribbean.On.Stranger.Tides.BluRay.720p.x264.AC3-WOFEI.jpg (230 KB)
    • 加勒比海盗4(国英双语) Pirates.Of.The.Caribbean.On.Stranger.Tides.2011.BluRay.720p.x264.AC3-WOFEI.mkv (3.34 GB)
    • 加勒比海盗4.jpg (232 KB)
    • 小浪影视-下载中英字幕电影的好地方.url (270 B)

Torrent Recommendation

4.2 GB
2016-09-14 09:23:28
8 GB
2015-02-06 00:43:04
1.91 GB
2016-10-13 02:41:59
530 MB
2007-12-17 04:57:59
1.08 GB
2013-09-24 11:29:41
3.2 GB
2016-03-20 07:05:20
5.46 GB
2016-03-29 17:38:57
1.49 GB
2017-02-04 15:25:34
1.84 GB
2014-06-25 09:41:06
2.61 GB
2015-08-06 00:19:55
4.02 GB
2016-03-20 01:41:30
1.83 GB
2016-09-18 01:42:50
423 MB
2016-12-06 09:02:36
1.39 GB
2013-11-09 14:26:26
1.3 GB
2016-09-27 04:56:08
12.1 GB
2014-10-29 11:27:32
1.02 GB
2015-03-30 05:26:39
4.38 GB
2015-08-15 03:17:28

Torrent Description

Names
Pirates of the Caribbean/加勒比海盗 / 加勒比海盗之黑珍珠号的诅咒 / 神鬼奇航 / 魔盗王-决战鬼盗船/中英字幕/英中字幕/中文字幕/英文字幕
Caption
加勒比海盗四部合集 Pirates.Of.The.Caribbean.I-IV.BluRay.720p.x264.AC3-WOFEI 国英双语
Year
2003
Nation
美国
Category
喜剧/动作/冒险/幻想
Language
英语/普通话
File Format
x264 + AC3
Video Size
1280 x 720
File Size
1CD 3.18G
Director
戈尔·维宾斯基 Gore Verbinski
Starring
约翰尼·德普 Johnny Depp .... Jack Sparrow/乔弗瑞·拉什 Geoffrey Rush .... Barbossa/奥兰多·布鲁姆 Orlando Bloom .... Will Turner/凯拉·耐特莉 Keira Knightley .... Elizabeth Swann/杰克·达文波特 Jack Davenport .... Norrington/乔纳森·普雷西 Jonathan Pryce .... Governor Weatherby Swann/Lee Arenberg .... Pintel/Mackenzie Crook .... Ragetti/Damian O'Hare .... Lt. Gillette/Giles New .... Murtogg/安格斯·巴内特 Angus Barnett .... Mullroy/David Bailie .... Cotton/Michael Berry Jr. .... Twigg/Isaac C. Singleton Jr. .... Bo'sun/凯文·麦克纳利 Kevin McNally .... Joshamee Gibbs
故事发生在传说中海盗最活跃的加勒比海(Caribbean Sea)。这片神秘的海域位于北美洲东南部,那里碧海蓝天,阳光明媚,海面水晶般清澈。17世纪的时候,这里更是欧洲大陆的商旅舰队到达美洲的必经之地,所以,当时的海盗活动非常猖獗,不仅攻击过往商人,甚至包括英国皇家舰队。 英俊迷人的杰克·斯伯洛((强尼·戴普 饰)),是活跃在加勒比海上的年青海盗,拥有属于自己的"黑珍珠号"海盗船。对他来说,最惬意的生活就是驾驶着"黑珍珠"在加勒比海上游荡,自由自在的打劫过往船只。但不幸的是,这悠闲洒脱的日子到底还是结束了--他遭到了海盗头目巴伯萨的欺骗,连自己珍爱的"黑珍珠号"海盗船也被巴伯萨偷走。 统领着一群海盗的巴伯萨(杰弗里·拉什 饰)是一个无恶不作的坏蛋,他不但打劫财物,还把船上的所有人都斩尽杀绝,不留活口。过往船只经过加勒比海时都胆战心惊,最怕遇上巴伯萨一伙。抢劫了杰克的"黑珍珠号"海盗船后,巴伯萨更加猖狂,在加勒比海上横行霸道,一时成为整个加勒比海的霸主。 随着自己的势力日渐强大,巴伯萨妄想长生不死的贪婪野心也在不断膨胀。他企图解开传说中魔咒金币的秘密使自己获得永生,却想不到反而遭到了邪恶的诅咒--每当月圆之夜,巴伯萨和其他"黑珍珠号"上的船员都会变成骷髅,而且终身禁欲髅,不能享受性和美食,甚至不能正常的走路。 变成了不死骷髅的巴伯萨,率领着"黑珍珠"号在加勒比海上更加肆无忌弹。一次,他们把船开进了皇家港并袭击了小镇,还绑架了总督的女儿伊莉莎白·斯万(姬拉·丽莉 饰)——因为这个女孩的脖子上佩带着一枚神秘金币。和伊莉莎白青梅竹马的铁匠学徒威尔·特纳(奥兰多·布鲁姆 饰),眼看自己心爱的女孩被海盗抓走,悲愤不已。恰巧的是,曾经身为"黑珍珠号"海盗船船长的杰克·斯伯洛,也由于自己的海盗身份被关进了这个海边小城的监狱。 铁匠威尔想方设法救出了狱中的杰克,接着,两人偷来英国皇家舰队最快的"拦截号"军舰。威尔为了救回深爱的女孩伊莉莎白,杰克为了夺回原本属于自己的"黑珍珠号",驾驶着"拦截号"军舰迅速向"黑珍珠"追去。 海盗们以为佩带着神秘金币的伊莉莎白可以帮助他们解开身上的神秘咒语,并想用她的鲜血来施用巫术。就在千钧一发之际,铁匠威尔和海盗杰克驾驶着军舰赶了上来,在他们身后,还有因被偷走军舰而穷追不舍的皇家军官诺灵顿。于是,海盗们扯起"骷髅旗",杰克拔出手枪和剑,威尔挥起一把大刀,诺灵顿指挥手下端起长枪,一场壮烈的人鬼大战就此拉开…… D:\rmvb资源\[高清MKV收藏 www.hdbird.com ]\飞鸟娱乐(bbs.hdbird.com).加勒比海盗三部曲.720P.中英字幕\加勒比海盗(国英双语) Pirates.of.the.Caribbean.At.World's.End.2007.BluRay.720p.x264.AC3-WOFEI.mkv General Complete name : D:\rmvb资源\[高清MKV收藏 www.hdbird.com ]\飞鸟娱乐(bbs.hdbird.com).加勒比海盗三部曲.720P.中英字幕\加勒比海盗(国英双语) Pirates.of.the.Caribbean.The.Curse.of.the.Black.Pearl.2003.BluRay.720p.x264.AC3-WOFEI.mkv Format : Matroska File size : 3.18 GiB Duration : 2h 23mn Overall bit rate : 3 182 Kbps Encoded date : UTC 2009-11-15 12:45:30 Writing application : mkvmerge v2.4.0 ('Fumbling Towards Ecstasy') built on Oct 11 2008 20:13:15 Writing library : libebml v0.7.7 + libmatroska v0.8.1 Video #1 ID : 1 Format : AVC Format/Info : Advanced Video Codec Format profile : [email protected] Format settings, CABAC : Yes Format settings, ReFrames : 4 frames Muxing mode : Container [email protected] Codec ID : V_MPEG4/ISO/AVC Duration : 2h 23mn Bit rate : 2 223 Kbps Nominal bit rate : 2 282 Kbps Width : 1 280 pixels Height : 720 pixels Display aspect ratio : 16:9 Frame rate : 23.976 fps Resolution : 24 bits Colorimetry : 4:2:0 Scan type : Progressive Bits/(Pixel*Frame) : 0.101 Stream size : 2.22 GiB (70%) Writing library : x264 core 68 r1183M f21daff Encoding settings : cabac=1 / ref=4 / deblock=1:-1:-1 / analyse=0x3:0x113 / me=umh / subme=7 / psy_rd=1.0:0.0 / mixed_ref=1 / me_range=16 / chroma_me=1 / trellis=2 / 8x8dct=1 / cqm=0 / deadzone=21,11 / chroma_qp_offset=-2 / threads=6 / nr=0 / decimate=1 / mbaff=0 / bframes=3 / b_pyramid=0 / b_adapt=1 / b_bias=0 / direct=3 / wpredb=1 / keyint=250 / keyint_min=25 / scenecut=40 / rc=2pass / bitrate=2282 / ratetol=1.0 / qcomp=0.60 / qpmin=10 / qpmax=51 / qpstep=4 / cplxblur=20.0 / qblur=0.5 / vbv_maxrate=50000 / vbv_bufsize=50000 / ip_ratio=1.40 / pb_ratio=1.30 / aq=1:1.00 Language : English Audio #2 ID : 2 Format : AC-3 Format/Info : Audio Coding 3 Codec ID : A_AC3 Duration : 2h 23mn Bit rate mode : Constant Bit rate : 448 Kbps Channel(s) : 6 channels Channel positions : Front: L C R, Surround: L R, LFE Sampling rate : 48.0 KHz Stream size : 459 MiB (14%) Title : 英语原声 Audio #3 ID : 3 Format : AC-3 Format/Info : Audio Coding 3 Codec ID : A_AC3 Duration : 2h 23mn Bit rate mode : Constant Bit rate : 448 Kbps Channel(s) : 6 channels Channel positions : Front: L C R, Surround: L R, LFE Sampling rate : 48.0 KHz Stream size : 459 MiB (14%) Title : 国语配音 Text #4 ID : 4 Format : SSA Codec ID : S_TEXT/SSA Codec ID/Info : Sub Station Alpha Title : 中英字幕 Text #5 ID : 5 Format : SSA Codec ID : S_TEXT/SSA Codec ID/Info : Sub Station Alpha Title : 英中字幕 Text #6 ID : 6 Format : SSA Codec ID : S_TEXT/SSA Codec ID/Info : Sub Station Alpha Title : 中文字幕 Text #7 ID : 7 Format : SSA Codec ID : S_TEXT/SSA Codec ID/Info : Sub Station Alpha Title : 英文字幕
pdf.worthsee.com PDF合并 PDF选页 PDF提取图片 PDF转HTML PDF分成单页 PDF提取文字