Triumph.in.the.Skies.2015.720p.BluRay.x264-WiKi

Torrent Base Info

Title:
Triumph.in.the.Skies.2015.720p.BluRay.x264-WiKi
Total size:
4.42 GB
Create Time:
2015-04-23 08:49:30
Total Files:
4

Guess You Like

Files in this torrent

  • Triumph.in.the.Skies.2015.720p.BluRay.x264-WiKi.torrent
  • Triumph.in.the.Skies.2015.720p.BluRay.x264-WiKi
    • RARBG.com.txt (34 B)
    • Sample
      • Triumph.in.the.Skies.2015.720p.BluRay.x264-WiKi.sample.mkv (53.5 MB)
    • Triumph.in.the.Skies.2015.720p.BluRay.x264-WiKi.mkv (4.37 GB)
    • Triumph.in.the.Skies.2015.720p.BluRay.x264-WiKi.nfo (4.51 KB)

Torrent Recommendation

1.19 GB
2013-05-07 16:42:25
969 MB
2014-02-23 02:11:30
2.65 GB
2016-02-27 00:07:50
1.38 GB
2016-11-15 16:15:21
9.07 GB
2014-10-19 06:16:48
2.59 GB
2016-11-12 03:32:28
1.34 GB
2014-08-01 16:52:53
1.21 GB
2013-04-12 12:13:57
2.86 GB
2016-09-30 07:21:50
2.13 GB
2014-10-16 10:34:26
2.45 GB
None
1022 MB
2014-11-20 12:05:53
2.05 GB
2017-06-03 07:17:09
2.34 GB
2015-11-11 14:59:23
994 MB
2016-01-11 02:24:19
1.54 GB
2014-11-17 08:09:57
1.05 GB
2015-04-24 05:23:00
2.38 GB
2016-02-04 07:46:12
3.27 GB
2016-11-04 19:37:28
2.38 GB
2016-12-04 09:59:45

Torrent Description

Movie
Triumph in the Skies
Detected quality
720p
Genre
Drama
Director
Matt Chow
Languages
Mandarin
Subtitles
Chinese
Title
Triumph in the Skies 2015 720p BluRay x264-WiKi
UpNum
+3
DownNum
0
Category
Movies > Highres Movies


https://rarbg.to/


NAME.................: Triumph in the Skies
GENRE................: Drama
RATiNG...............: 4.6/10 from 93 users
iMDB.................: http://www.imdb.com/title/tt1929433
RELEASE DATE.........: 2015-04-23
ENCODE BY............: Jubowo @ WiKi
RUNTiME..............: 1h:39m:45s
FiLE SiZE............: 4.37 GiB
ViDEO CODEC..........: x264 @ 5186 Kbps
AUDiO CODEC..........: Cantonese DD 5.1 @ 640 Kbps
AUDiO CODEC..........: Mandarin DD 5.1 @ 448 Kbps
FRAMERATE............: 24 fps
RESOLUTiON...........: 1280x544
SOURCE...............: 1080p Blu-ray AVC TrueHD 7.1-TTG
SUBTiTLES............: CHS_CHT

Screens:
http://imagecurl.com/viewer....ile=90344453605525799994.png
http://imagecurl.com/viewer....ile=93277708511189702672.png
http://imagecurl.com/viewer....ile=11705026582430912587.png

MediaInfo


Video
ID : 1
Format : AVC
Format/Info : Advanced Video Codec
Format profile : [email protected]
Format settings, CABAC : Yes
Format settings, ReFrames : 12 frames
Codec ID : V_MPEG4/ISO/AVC
Duration : 1h 39mn
Bit rate : 5 186 Kbps
Width : 1 280 pixels
Height : 544 pixels
Display aspect ratio : 2.35:1
Frame rate mode : Constant
Frame rate : 24.000 fps
Color space : YUV
Chroma subsampling : 4:2:0
Bit depth : 8 bits
Scan type : Progressive
Bits/(Pixel*Frame) : 0.310
Stream size : 3.52 GiB (81%)
Writing library : x264 core 129 r2245+704+36 8e61944 tMod+MixAQ [[email protected]:2:0 X86_64]
Encoding settings : cabac=1 / ref=12 / deblock=1:-3:-3 / analyse=0x3:0x133 / me=umh / subme=11 / psy=1 / fade_compensate=0.00 / psy_rd=1.05:0.10 / mixed_ref=1 / me_range=32 / chroma_me=1 / trellis=2 / 8x8dct=1 / cqm=0 / deadzone=21,11 / fast_pskip=0 / chroma_qp_offset=-3 / threads=18 / lookahead_threads=3 / sliced_threads=0 / nr=0 / decimate=0 / interlaced=0 / bluray_compat=0 / constrained_intra=0 / fgo=0 / bframes=10 / b_pyramid=2 / b_adapt=2 / b_bias=0 / direct=3 / weightb=1 / open_gop=0 / weightp=2 / keyint=250 / keyint_min=24 / scenecut=40 / intra_refresh=0 / rc_lookahead=80 / rc=2pass / mbtree=1 / bitrate=5186 / ratetol=1.0 / qcomp=0.70 / qpmin=0 / qpmax=69 / qpstep=4 / cplxblur=20.0 / qblur=0.5 / ip_ratio=1.40 / aq=3 / aq-strength=0.85 / aq-sensitivity=10.00 / aq-ifactor=1.00 / aq-pfactor=1.00 / aq-bfactor=1.00 / aq2=0
Language : Chinese
Default : Yes
Forced : No
Matrix coefficients : BT.709
Color range : Limited

Audio #1
ID : 2
Format : AC-3
Format/Info : Audio Coding 3
Mode extension : CM (complete main)
Format settings, Endianness : Big
Codec ID : A_AC3
Duration : 1h 39mn
Bit rate mode : Constant
Bit rate : 640 Kbps
Channel(s) : 6 channels
Channel positions : Front: L C R, Side: L R, LFE
Sampling rate : 48.0 KHz
Bit depth : 16 bits
Compression mode : Lossy
Stream size : 457 MiB (10%)
Title : Cantonese
Language : Chinese
Default : Yes
Forced : No

Audio #2
ID : 3
Format : AC-3
Format/Info : Audio Coding 3
Mode extension : CM (complete main)
Format settings, Endianness : Big
Codec ID : A_AC3
Duration : 1h 39mn
Bit rate mode : Constant
Bit rate : 448 Kbps
Channel(s) : 6 channels
Channel positions : Front: L C R, Side: L R, LFE
Sampling rate : 48.0 KHz
Bit depth : 16 bits
Compression mode : Lossy
Stream size : 320 MiB (7%)
Title : Mandarin
Language : Chinese
Default : No
Forced : No

Text #1
ID : 4
Format : UTF-8
Codec ID : S_TEXT/UTF8
Codec ID/Info : UTF-8 Plain Text
Title : Simplified
Language : Chinese
Default : Yes
Forced : No

Text #2
ID : 5
Format : UTF-8
Codec ID : S_TEXT/UTF8
Codec ID/Info : UTF-8 Plain Text
Title : Traditional
Language : Chinese
Default : No
Forced : No

Menu
00:00:00.000 : en:00:00:00.000
00:06:24.791 : en:00:06:24.791
00:13:39.333 : en:00:13:39.333
00:20:31.625 : en:00:20:31.625
00:27:08.958 : en:00:27:08.958
00:30:30.583 : en:00:30:30.583
00:35:39.291 : en:00:35:39.291
00:40:54.208 : en:00:40:54.208
00:45:06.333 : en:00:45:06.333
00:51:54.083 : en:00:51:54.083
00:55:49.083 : en:00:55:49.083
01:02:00.125 : en:01:02:00.125
01:07:32.958 : en:01:07:32.958
01:12:07.833 : en:01:12:07.833
01:17:41.291 : en:01:17:41.291
01:22:35.250 : en:01:22:35.250
01:29:34.958 : en:01:29:34.958
01:35:30.625 : en:01:35:30.625

Torrent Description

Names
Triumph in the Skies/冲上云霄/冲上云霄电影版
Caption
[爱情片][04-23] [香港][爱情][冲上云霄][720P版BD-MKV/4.37G][国粤双语中字][2015古天乐/郑秀文/佘诗曼]
Year
2015
Nation
中国香港
Category
剧情
Language
普通话/粤语字 幕 简体中文/繁体中文
File Format
X264 + DD 5.1
File Size
4.37 GiB
Director
叶伟信 Wilson Yip
Starring
古天乐 Louis Koo/吴镇宇 Francis Ng/张智霖 Julian Cheung/郑秀文 Sammi Cheng/佘诗曼 Charmaine Sheh/郭采洁 Amber Kuo/朱璇 Oceane Zhu/马国明 Kenneth Ma/刘俊孝 Junxiao Liu/恭硕良 Jun Kung/廖京生 Jingsheng Liao
年青机师Branson(古天乐 饰),另一身分是富商儿子,从爸爸手上接管生意后,全力打理Skylette天颂航空。他对公司的空中服务员Cassie(佘诗曼 饰)照顾有加,原来二人是前度关系,数年前Branson因要往纽约接管家族生意,只好无奈跟她暂别,但其实大家心中都一直有对方,只是没有宣之于口。为帮公司建立新形象,Branson邀请巨星TM(郑秀文 饰)拍摄宣传片,并由Sam(吴镇宇 饰)担任拍摄时的飞行顾问,碰巧二人早前为航班误点有过磨擦,令见面时非常尴尬,但过程中竟又互相发现对方的优点,暗生情愫。顾夏阳Jayden(张智霖 饰)为接受待遇更好的私人机师一职,离开天颂。一次航程,遇上年轻活泼的女子Kika(郭采洁 饰),起初只觉得她是贪图金钱、任性妄为的女子,但性格吻合又令两人火速恋上,正当爱得缠绵之际,Jayden得悉原来奉行及时行乐的Kika的背后另有原因……

Torrent Description

Names
Triumph in the Skies/冲上云霄/冲上云霄电影版
Caption
[720P][04-23] 冲上云霄/冲上云霄电影版 Triumph.in.the.Skies.2015.720p.BluRay.x264-WiKi
Year
2015
Nation
中国香港
Category
剧情
Language
普通话/粤语字 幕简体中文/繁体中文
File Format
X264 + DD 5.1
File Size
4.37 GiB
Director
叶伟信 Wilson Yip
Starring
古天乐 Louis Koo/吴镇宇 Francis Ng/张智霖 Julian Cheung/郑秀文 Sammi Cheng/佘诗曼 Charmaine Sheh/郭采洁 Amber Kuo/朱璇 Oceane Zhu/马国明 Kenneth Ma/刘俊孝 Junxiao Liu/恭硕良 Jun Kung/廖京生 Jingsheng Liao
年青机师Branson(古天乐 饰),另一身分是富商儿子,从爸爸手上接管生意后,全力打理Skylette天颂航空。他对公司的空中服务员Cassie(佘诗曼 饰)照顾有加,原来二人是前度关系,数年前Branson因要往纽约接管家族生意,只好无奈跟她暂别,但其实大家心中都一直有对方,只是没有宣之于口。为帮公司建立新形象,Branson邀请巨星TM(郑秀文 饰)拍摄宣传片,并由Sam(吴镇宇 饰)担任拍摄时的飞行顾问,碰巧二人早前为航班误点有过磨擦,令见面时非常尴尬,但过程中竟又互相发现对方的优点,暗生情愫。顾夏阳Jayden(张智霖 饰)为接受待遇更好的私人机师一职,离开天颂。一次航程,遇上年轻活泼的女子Kika(郭采洁 饰),起初只觉得她是贪图金钱、任性妄为的女子,但性格吻合又令两人火速恋上,正当爱得缠绵之际,Jayden得悉原来奉行及时行乐的Kika的背后另有原因……
pdf.worthsee.com PDF合并 PDF选页 PDF提取图片 PDF转HTML PDF分成单页 PDF提取文字