飞鸟娱乐[bbs.hdbird.com].死亡特训.720P.中英字幕

Torrent Base Info

Title:
飞鸟娱乐[bbs.hdbird.com].死亡特训.720P.中英字幕
Total size:
2.18 GB
Create Time:
2010-12-20 05:52:28
Total Files:
11

Guess You Like

Files in this torrent

  • 飞鸟娱乐[bbs.hdbird.com].死亡特训.720P.中英字幕.torrent
  • 飞鸟娱乐[bbs.hdbird.com].死亡特训.720P.中英字幕
    • [email protected]飞鸟娱乐.txt (1.27 KB)
    • 弹弹堂-远征的召唤.url (317 B)
    • 德克萨斯扑克游戏-零距离感受欧美最风靡的扑克游戏.url (272 B)
    • 飞鸟娱乐-边看电影边学英语,娱乐学习两不误.url (272 B)
    • 飞鸟娱乐网址更新器.rar (122 KB)
    • 飞鸟娱乐主页-下载免费电影的绝佳选择!.htm (5.99 KB)
    • 死亡特训 Mindhunters.2004.BluRay.720p.x264.AC3-WOFEI.jpg (194 KB)
    • 死亡特训 Mindhunters.2004.BluRay.720p.x264.AC3-WOFEI.mkv (2.18 GB)
    • 死亡特训.jpg (108 KB)
    • 死亡特训.txt (7.24 KB)
    • 小浪影视-下载中英字幕电影的好地方.url (270 B)

Torrent Recommendation

702 MB
2008-04-10 00:42:01
4.54 GB
2016-03-11 06:51:03
875 MB
2016-04-17 04:57:23
434 MB
2009-12-15 05:55:51
702 MB
2011-05-25 06:41:44
1.37 GB
2016-05-07 03:44:59
564 MB
2009-03-09 03:25:39
2.31 GB
2015-12-06 08:16:11
2.4 GB
2015-11-20 07:26:35
3.17 GB
2016-05-26 16:44:15
1.18 GB
2013-12-28 13:25:38
1.83 GB
2010-03-14 18:28:44
2.77 GB
2016-12-04 19:16:00
2.15 GB
2016-08-10 09:14:41
6.58 GB
2016-08-29 06:59:05
323 MB
2007-05-18 06:48:14
2.83 GB
2016-02-03 03:38:01

Torrent Description

Names
Mindhunters/八面埋伏/死亡特训/埋伏杀机/中英字幕/中文字幕/英中字幕/英文字幕
Caption
【飞鸟影视BT组】死亡特训 Mindhunters.2004.BluRay.720p.x264.AC3-WOFEI 中英字幕
Year
2004
Nation
美国/新西兰/英国/芬兰
Category
动作/犯罪/剧情/悬疑/惊悚/恐怖
Language
英语
File Format
X264 + AC3
Video Size
1280 x 720
File Size
1CD 2.18G
Director
雷尼·哈林 Renny Harlin
Starring
艾恩·贝利 Eion Bailey .... Bobby Whitman/小克利夫顿·克林斯 Clifton Collins Jr. .... Vince Sherman/威尔·基默 Will Kemp .... Rafe Perry/瓦尔·基尔默 Val Kilmer .... Jake Harris/约翰尼·李·米勒 Jonny Lee Miller .... Lucas Harper/凯瑟琳·莫里斯 Kathryn Morris .... Sara Moore/克利斯汀·史莱特 Christian Slater .... J.D. Reston
美国,离加州海岸不远的小岛上,七名联邦调查局的年轻特工跟随一名老特工将在那里展开特训。训练代号为“Mindhunters”,主要内容是模拟杀手的连环犯案过程,由受训特工进行调查,分析凶手作案动机及下一步行动计划,一名警局的探长也受指令以观察员的身份加入此次活动。然而,从特训开始的第一天起,七名受训特工突然发现他们已陷入一场精心布局的杀人游戏之中,而连环杀手就藏在八个人之中,他早已掌握了每个人的心理弱点,可以在其他人洞悉危机之前,先下杀手。 危机面前,每个人都陷入崩溃边缘,同伴之间互相猜忌,可这却更让凶手有可乘之机。唯一能保住自己性命的方法,便是利用在联邦调查局学到的心理分析技巧,走入凶手的脑袋,揣度他的下一步棋。一次狙凶训练,竟变成被杀手猎杀的游戏,生死一线间,只能与时间竞赛…… [看起来很酷的剧情] 离加利福尼亚海岸不远的一个小岛上,联邦调查局正在进行代号“八面埋伏”的心理分析训练。该项目的主要内容是模拟连环杀手犯罪,由受训特工进行调查。七个年轻特工跟着两个老特工上岛受训,任务是捕捉代号“木偶师”的虚拟杀手。从他们上岛开始,意外连续发生。他们终于认识到,岛上有一个真正的连环杀手,这人已经周密安排,要杀掉他们。他们无法向外界求援,也不敢信任任何人。想逃避被凶手一一杀死的命运,他们只能善用刚刚学到的知识。 [当前希望之星遇到现任希望之星] 本片跟《致命ID》一样是群戏,没有真正意义上的大牌,大伙儿倒是都当过几天希望之星。 克里斯汀·斯莱特 他挂名主演,戏份似乎还不如LL Cool J重,90年前后斯莱特可是好莱坞风头最劲的青春偶像,后来毁于吸毒和斗殴丑闻,自《断箭》后就没什么叫好或者叫座的作品面世。 LL Cool J 说唱明星,在雷尼·哈林上一部戏《水深火热》(Deep Blue Sea)中也扮演过角色。 艾恩·贝利 《兄弟连》中的大卫·韦伯斯特,在《搏击会》《成名在望》中都露过脸。 约翰尼·李·米勒 英国帅哥,安吉丽娜·朱丽的第一任丈夫,目前全力到美国发展,下一部戏将是伍迪·艾伦的新作。 凯瑟琳·莫里斯 超级甘草演员,吴宇森宝马广告的女主角,在《人工智能》《关键报告》《记忆裂痕》中都跑过龙套。 小克利夫顿·克林斯 著名的墨西哥裔甘草演员佩德罗·冈萨雷斯·冈萨雷斯的外孙,在《毒品网络》中演墨西哥警察。 瓦尔·基默 坏小子演训练负责人,戏份儿不多,是半客串性质。这位老兄从在《壮志凌云》中跟汤姆·克鲁斯演对头开始,前途一直被人看好,可惜脾气太坏,不断自毁前途,1995年他也曾昙花一现,主演《蝙蝠侠3》,客串《盗火线》,酷得惊天动地,跟着在主演《人魔岛》的时候殴打导演,从此无人敢用,处于半失业状态。 [背水一战的导演] 从LD时代过来的碟迷,应该还记得芬兰导演雷尼·哈林,他的《终极警探2》《绝岭雄风》都曾是碟市上的常青树。雷尼·哈林拍过几部卖座片后,有了更多的权力,却开始走下坡路。在我个人看来,他和约翰·迈克提南(《终极警探》1、3)一样,是将才而非帅才,必须有个好监制管着才能出活儿。 此前雷尼·哈林已经连续拍了四部赔本电影:《割喉岛》《长吻晚安》《水深火热》和《生死极速》。他原本有两个拍摄计划要在2003年进入制作阶段,《杀手游戏》和《传奇大陆》,现在都没了下文。 [一再拖期的发行] 看起来很像抄袭《致命ID》,其实本片早在2002年《致命ID》开拍之前就完成了前期。但帝门公司方面对影片不大满意,公映日连续更改了十次,从2003年8月一直拖到2004年1月23日,而就在快上映的前夕,帝门又突然将日期无限延后,具体原因不明,总体来说,这种映期一拖再拖的架势决不是什么好兆头,大家心知肚明吧…… 一年来,影片在不同场合进行过小规模放映,甚至还有偷录版本通过BT流传。截止到1月20日,该片在IMDB上获得的投票已经有一百来票了,得分是6.6,从观众的评语来看,应该是水准中上的血腥恐怖片。 [两个结尾两个凶手] 偷录版本流传后,制片方似乎很认真地研究了观众反应,拖期进行重新剪辑和补拍。根据网上流传的“帝门公司内幕”,这次更改了结尾的二十分钟,角色命运都被改变,连真凶都换了人。 F:\rmvb资源\[高清MKV收藏 www.hdbird.com ]\飞鸟娱乐[bbs.hdbird.com].死亡特训.720P.中英字幕\死亡特训 Mindhunters.2004.BluRay.720p.x264.AC3-WOFEI.mkv General Complete name : F:\rmvb资源\[高清MKV收藏 www.hdbird.com ]\飞鸟娱乐[bbs.hdbird.com].死亡特训.720P.中英字幕\死亡特训 Mindhunters.2004.BluRay.720p.x264.AC3-WOFEI.mkv Format : Matroska File size : 2.18 GiB Duration : 1h 45mn Overall bit rate : 2 952 Kbps Encoded date : UTC 2010-12-20 05:40:37 Writing application : mkvmerge v3.4.0 ('Rapunzel') 编译于 May 15 2010 09:38:20 Writing library : libebml v0.8.0 + libmatroska v0.9.0 Video #1 ID : 1 Format : AVC Format/Info : Advanced Video Codec Format profile : [email protected] Format settings, CABAC : Yes Format settings, ReFrames : 5 frames Muxing mode : Container [email protected] Codec ID : V_MPEG4/ISO/AVC Duration : 1h 45mn Bit rate : 2 445 Kbps Nominal bit rate : 2 506 Kbps Width : 1 280 pixels Height : 720 pixels Display aspect ratio : 16:9 Frame rate : 23.976 fps Resolution : 8 bits Colorimetry : 4:2:0 Scan type : Progressive Bits/(Pixel*Frame) : 0.111 Stream size : 1.81 GiB (83%) Writing library : x264 core 98 r1649 c54c47d Encoding settings : cabac=1 / ref=5 / deblock=1:-1:-1 / analyse=0x3:0x113 / me=umh / subme=6 / psy=1 / psy_rd=1.00:0.00 / mixed_ref=1 / me_range=16 / chroma_me=1 / trellis=2 / 8x8dct=1 / cqm=0 / deadzone=21,11 / fast_pskip=1 / chroma_qp_offset=-2 / threads=6 / sliced_threads=0 / nr=0 / decimate=1 / interlaced=0 / constrained_intra=0 / bframes=4 / b_pyramid=0 / b_adapt=1 / b_bias=0 / direct=3 / weightb=1 / weightp=2 / keyint=250 / keyint_min=25 / scenecut=40 / intra_refresh=0 / rc_lookahead=40 / rc=2pass / mbtree=1 / bitrate=2506 / ratetol=1.0 / qcomp=0.60 / qpmin=10 / qpmax=51 / qpstep=4 / cplxblur=20.0 / qblur=0.5 / ip_ratio=1.40 / aq=1:1.00 Language : English Audio #2 ID : 2 Format : AC-3 Format/Info : Audio Coding 3 Codec ID : A_AC3 Duration : 1h 45mn Bit rate mode : Constant Bit rate : 448 Kbps Channel(s) : 6 channels Channel positions : Front: L C R, Surround: L R, LFE Sampling rate : 48.0 KHz Stream size : 339 MiB (15%) Text #3 ID : 3 Format : SSA Codec ID : S_TEXT/SSA Codec ID/Info : Sub Station Alpha Title : 中英 Text #4 ID : 4 Format : SSA Codec ID : S_TEXT/SSA Codec ID/Info : Sub Station Alpha Title : 英中 Text #5 ID : 5 Format : UTF-8 Codec ID : S_TEXT/UTF8 Codec ID/Info : UTF-8 Plain Text Title : 中文 Text #6 ID : 6 Format : UTF-8 Codec ID : S_TEXT/UTF8 Codec ID/Info : UTF-8 Plain Text Title : 英文
NCM格式转换为MP3格式