飞鸟娱乐[bbs.hdbird.com].阿黛拉的非凡冒险.720P.国语中字

Torrent Base Info

Title:
飞鸟娱乐[bbs.hdbird.com].阿黛拉的非凡冒险.720P.国语中字
Total size:
2.18 GB
Create Time:
2010-11-13 04:28:32
Total Files:
11

Guess You Like

Files in this torrent

  • 飞鸟娱乐[bbs.hdbird.com].阿黛拉的非凡冒险.720P.国语中字.torrent
  • 飞鸟娱乐[bbs.hdbird.com].阿黛拉的非凡冒险.720P.国语中字
    • [email protected]飞鸟娱乐.txt (1.27 KB)
    • 阿黛拉的非凡冒险 The.Extraordinary.Adventures.of.Adele.Blanc-Sec.2010.BluRay.720p.x264.AC3-WOFEI.jpg (253 KB)
    • 阿黛拉的非凡冒险 The.Extraordinary.Adventures.of.Adele.Blanc-Sec.2010.BluRay.720p.x264.AC3-WOFEI.mkv (2.18 GB)
    • 阿黛拉的非凡冒险.jpg (232 KB)
    • 阿黛拉的非凡冒险.txt (8.86 KB)
    • 弹弹堂-远征的召唤.url (317 B)
    • 德克萨斯扑克游戏-零距离感受欧美最风靡的扑克游戏.url (272 B)
    • 飞鸟娱乐-边看电影边学英语,娱乐学习两不误.url (272 B)
    • 飞鸟娱乐网址更新器.rar (122 KB)
    • 飞鸟娱乐主页-下载免费电影的绝佳选择!.htm (5.99 KB)
    • 小浪影视-下载中英字幕电影的好地方.url (270 B)

Torrent Recommendation

1.75 GB
None
2.61 GB
2014-10-18 08:40:47
2.54 GB
2016-10-18 04:51:22
1.62 GB
2016-07-30 08:48:51
850 MB
2017-04-16 14:36:39
1.53 GB
2016-09-20 03:21:13
3.5 GB
2014-09-25 10:15:17
16.1 GB
2014-02-21 12:52:20
2.45 GB
2016-03-03 11:46:15
1.43 GB
2015-01-02 04:22:03
1.95 GB
2015-03-24 22:30:44
2.23 GB
2016-04-01 00:47:59
3.8 GB
2016-09-01 08:24:43
1.15 GB
2014-09-25 03:30:53
3.82 GB
2016-06-24 02:12:55
2.48 GB
2016-06-15 15:28:59
444 MB
2007-12-04 23:10:20
1.23 GB
2014-02-17 03:58:37
1.19 GB
2014-06-21 15:51:28

Torrent Description

Names
The Extraordinary Adventures of Adele Blanc-Sec/阿黛拉的非凡冒险/神探阿黛拉/阿黛拉·布兰科塞克的非凡冒险/女侦探阿黛勒的冒险/神鬼惊奇:古生物复活(台)/幻险巴黎:美女、魔龙、木乃伊(港)/中文
Caption
【飞鸟影视BT组】阿黛拉的非凡冒险 2010.BluRay.720p.x264.AC3-WOFEI 国语中字
Year
2010
Nation
法国
Category
动作/冒险/幻想/神秘
Language
普通话
File Format
X264 + AC3
Video Size
1280 x 720
File Size
1CD 2.18G
Director
吕克·贝松 Luc Besson
Starring
露易丝·布尔昆 Louise Bourgoin....Adèle Blanc-Sec/马修·阿马立克 Mathieu Amalric/吉尔·勒卢什 Gilles Lellouche....Inspecteur Caponi/菲利普·拿翁 Philippe Nahon....Professeur Ménard/福德莉奇·贝尔 Frédérique Bel/让-保罗·卢弗 Jean-Paul Rouve/Eric Naggar/斯万·阿劳德 Swann Arlaud....Crieur de journaux 4/CHRISTOPHE DIMITRI RéVEILLE ....MOMIE SHELSOüT/Grégory Ragot ....assistant Bertrand/Gérard Chaillou/Jean-Michel Molé
故事发生在1912年,阿黛拉·布兰科塞克,一位天不怕地不怕的女记者。为了完成报道任务,天涯海角都勇闯直前,哪怕意味着去埃及和各式各样的木乃伊展开对决。 与此同时,更大的危机却在巴黎酝酿着。自然历史博物馆中,一只一亿三千六百多万年前的翼手龙卵,神秘的孵化了。整个城市,笼罩在恐怖的天空下。但没有什么能阻挡阿黛拉的脚步,她在冒险的旅程中将揭开更多不可思议的秘密…… 一句话评论 虽然吕克·贝松以往拍摄过了很多以女性为主体的影片(《尼基塔》、《第五元素》),但是这部电影中的阿黛拉和以往明显不同,她一上来就是一个思想解放的女强人,而不是在电影中慢慢变成一个女强人的。 ——premiere.fr 影片既幽默又怀旧,同时还有点荒诞,这样的风格和气氛,对于讲述这么一个故事是再好也不过的,但是影片中有一些场景处理得太过潦草,也有一些镜头太过于简略。如果是漫画的粉丝,对于这部电影可能不会太满意。 ——moviemaze 阿黛拉的故事已经远远超越了一本漫画所能承载的容量了——它早已成为了流行文化的符号和情感的寄托。用人用它来怀旧,更多的人用它来励志。吕克·贝松这次以电影的方式讲述了这个故事,他做得很不错。 ——theartsdesk.com 幕后制作 【传统元素展现梦幻世界】 影片《阿黛拉的非凡冒险》故事发生第一次世界大战这个大的环境背景地点,吕克·贝松:巴黎,一个象征性的具有魔力以及神秘的城市。还有我们女英雄非凡的冒险故事,其中包括了疯狂的科学家,法国总统,木乃伊和一个使巴黎天空笼罩在恐慌下的翼龙。这些故事有许多的可能性。本片是传统写意和写实两种意境的结合。在塑造人物、场景设计、服装设计、道具准备方面都进行了详细的设计,影片中出现的每一样物件都是超越现在体现魔幻未来的。另一方面在写实的基础上追求动作写意,我们所有的动作设计都充满了天马行空的想象力,争取让动作场面和人物充满灵性。 【美女主播本色出演 机灵古怪自由奔放】 被誉为成碧姬·巴铎的接班人露易丝·布尔昆是Canal+频道的前气象播报员,由于独特的播报风格与幽默、诙谐具有张力的采访风格,深受观众喜爱与爱戴,也备受各大电影制作人关注,在2008年出演《摩纳哥女孩》一举跃上大银屏成为新一代性感女星。 据吕克·贝松介绍,阿黛拉这个角色真的非常的特别。她就像一个现代的摩登女性而生活在了二十世纪初期。她独立、无拘无束,行为举止像个男人,我们不知道她到底真的是名新闻记者,还是侦探?此外,二十世纪初,在前两次世界大战浩动肆虐之前,是一个具有神奇自由的时期。 本片角色实际是露易丝的本色出演,活泼可爱,机智勇敢、斗智斗勇。她的表演抓住了这个人物的灵魂。在屏幕上,她成为了斗志旺盛,独立和充满好奇心的女主人公,她将现代与那个时期完美的融合在一起。 【杂糅的巴黎】 在吕克·贝松以往的电影中,巴黎早已经不再是一个城市的名称了,而是一个符号和异想天开的背景。在这部电影中,巴黎,一样不仅仅是一座城市那么简单,它似乎变成了整个欧洲的缩影,似乎是一个有生命、有魔力的城市。 在拍摄这部电影前,吕克·贝松在阿姆斯特丹住了5年。吕克·贝松说:“这5年的时间对我来说,意义斐然。我用了很多的心思在阿黛拉这个人物身上,为了让她有着更为普遍的性格和特点,我几乎走遍整个欧洲:巴黎、柏林、慕尼黑、巴塞罗那,当然还有荷兰阿姆斯特丹本身。我觉得出现在我的这部冒险电影中的城市不能、也不应该太有自我的属性,相反,我认为它更应该是一个千姿百态的、杂糅的世界。此外,这个故事开始于1911年,欧洲的这些城市还没有遭到一战和二战的摧残,所以我在影片里加上了我在书上看到的、现在没有的一些建筑和景观。对于这样一个巴黎,我心满意足,因为它足够复杂也足够疯狂。可以说,影片中的这个城市不仅仅是一个城市了,它是整个欧洲的缩影。”为了能让这个杂糅的巴黎展示得更为充分,电影的官方网站也被做成了巴黎街景的模式,街道上有行人、狗、恐龙、怪物,甚至连街边的布告栏上的报纸和寻人启事都能找到。吕克·贝松说:“我希望展示的就是这么一个科幻与真实并存的巴黎,只有这样,雅克·塔蒂(Jacques Tardi)的这个充满了天马行空的想象和现实战争威胁的冒险故事才能展开。否则的话,在一个现实的景观和城市里,发生这个故事则显得非常别扭。” 【精彩的冒险故事】 在《阿黛拉的非凡冒险》中,登场的人物有一大堆:疯子科学家、法国总统、复活的木乃伊和一只会飞的恐龙。对于要怎么处理并融合这些“元素”,吕克·贝松下了一番功夫。他说:“我一直很喜欢塔蒂创作的这系列漫画,尤其是这些故事中的冒险元素和人物设置。第一集漫画里有一只会飞的翼龙,在第四集中,塔蒂让阿黛拉从远古时到穿越回现在,带回了一些有宗教意义的能引起血腥大屠杀的东西。其实在每一集里,阿黛拉都会遭遇风险。但是,她每次都能保住自己的生命。阿黛拉是一个年轻的女科学家,她能召唤木乃伊复活,解救她于危难之中。我要做的就是把这么些独特的故事展示在一起。用一个合适的方法,把这部电影拍成有现实感的‘科幻片’。我不能放弃影片的现实感,也不能放弃那些奇思妙想。所以这部电影是现实和写意并存的。” 对于阿黛拉这么一个角色,漫画家塔蒂在一次接受采访的时候说:“阿黛拉的‘死亡’其实一战爆发的结果,因为对于阿黛拉这样一个性格卓绝的女性,她在一战中无论如何也活不下去。”这么一个重要的角色,本应该由一个著名的女演员来扮演,可是吕克·贝松却出乎意料地找到了银幕经验并不丰富的露易丝·布尔昆。对于这个选择,吕克·贝松说:“总体上说来阿黛拉是一个有着敢说敢做敢冒险性格的女性。像是一个朋克女孩。这是一个开化的角色,有着极强的现代观念。要知道,影片的背景是1911年,这样的女人绝无仅有。真是因为这样,所以我才想找一个新鲜点的面孔扮演她。我本人就非常喜欢布尔昆表演的那些小短剧和模仿戏,一个演员会明白怎么去控制她的声音,正好,布尔昆在这点上非常有经验。那天和她碰面5分钟之后,我就明白,她就是影片中的阿黛拉。” 影片取材于法国漫画家雅克·塔蒂(Jacques Tardi)的漫画故事。 F:\rmvb资源\[高清MKV收藏 www.hdbird.com ]\飞鸟娱乐[bbs.hdbird.com].阿黛拉的非凡冒险.720P.国语中字\阿黛拉的非凡冒险 The.Extraordinary.Adventures.of.Adele.Blanc-Sec.2010.BluRay.720p.x264.AC3-WOFEI.mkv General Complete name : F:\rmvb资源\[高清MKV收藏 www.hdbird.com ]\飞鸟娱乐[bbs.hdbird.com].阿黛拉的非凡冒险.720P.国语中字\阿黛拉的非凡冒险 The.Extraordinary.Adventures.of.Adele.Blanc-Sec.2010.BluRay.720p.x264.AC3-WOFEI.mkv Format : Matroska File size : 2.18 GiB Duration : 1h 46mn Overall bit rate : 2 930 Kbps Encoded date : UTC 2010-11-13 03:54:25 Writing application : mkvmerge v3.3.0 ('Language') 编译于 Mar 24 2010 14:59:24 Writing library : libebml v0.8.0 + libmatroska v0.9.0 Video #1 ID : 1 Format : AVC Format/Info : Advanced Video Codec Format profile : [email protected] Format settings, CABAC : Yes Format settings, ReFrames : 6 frames Muxing mode : Container [email protected] Codec ID : V_MPEG4/ISO/AVC Duration : 1h 46mn Bit rate : 2 424 Kbps Nominal bit rate : 2 485 Kbps Width : 1 280 pixels Height : 720 pixels Display aspect ratio : 16:9 Frame rate : 23.976 fps Resolution : 8 bits Colorimetry : 4:2:0 Scan type : Progressive Bits/(Pixel*Frame) : 0.110 Stream size : 1.80 GiB (83%) Writing library : x264 core 98 r1649 c54c47d Encoding settings : cabac=1 / ref=6 / deblock=1:-3:-3 / analyse=0x3:0x113 / me=umh / subme=7 / psy=1 / psy_rd=1.00:0.00 / mixed_ref=1 / me_range=20 / chroma_me=1 / trellis=2 / 8x8dct=1 / cqm=0 / deadzone=21,11 / fast_pskip=1 / chroma_qp_offset=-2 / threads=6 / sliced_threads=0 / nr=0 / decimate=1 / interlaced=0 / constrained_intra=0 / bframes=8 / b_pyramid=0 / b_adapt=1 / b_bias=0 / direct=3 / weightb=1 / weightp=2 / keyint=250 / keyint_min=25 / scenecut=40 / intra_refresh=0 / rc_lookahead=40 / rc=2pass / mbtree=1 / bitrate=2485 / ratetol=1.0 / qcomp=0.60 / qpmin=10 / qpmax=51 / qpstep=4 / cplxblur=20.0 / qblur=0.5 / ip_ratio=1.40 / aq=1:1.00 Language : English Audio #2 ID : 2 Format : AC-3 Format/Info : Audio Coding 3 Codec ID : A_AC3 Duration : 1h 46mn Bit rate mode : Constant Bit rate : 448 Kbps Channel(s) : 6 channels Channel positions : Front: L C R, Surround: L R, LFE Sampling rate : 48.0 KHz Stream size : 342 MiB (15%) Title : 普通话 Text #3 ID : 3 Format : UTF-8 Codec ID : S_TEXT/UTF8 Codec ID/Info : UTF-8 Plain Text Title : 中文
audio.worthsee.com/convert 音频格式文件转换
ncm.freelrc.com NCM TO MP3