Tom.and.Jerry.Spy.Quest.2015.720p.WEB-DL.XviD.AC3-RARBG

Torrent Base Info

Title:
Tom.and.Jerry.Spy.Quest.2015.720p.WEB-DL.XviD.AC3-RARBG
Total size:
2.13 GB
Create Time:
2015-07-05 15:03:49
Total Files:
4

Guess You Like

Files in this torrent

  • Tom.and.Jerry.Spy.Quest.2015.720p.WEB-DL.XviD.AC3-RARBG.torrent
  • Tom.and.Jerry.Spy.Quest.2015.720p.WEB-DL.XviD.AC3-RARBG
    • RARBG.com.avi (1.14 MB)
    • RARBG.com.txt (34 B)
    • Tom.and.Jerry.Spy.Quest.2015.720p.WEB-DL.XviD.AC3-RARBG.avi (2.13 GB)
    • Tom.and.Jerry.Spy.Quest.2015.720p.WEB-DL.XviD.AC3-RARBG.nfo (3.06 KB)

Torrent Recommendation

485 MB
2013-11-11 06:32:15
2.6 GB
2011-07-04 07:06:12
3.57 GB
2015-12-23 07:17:39
1.37 GB
2015-10-29 02:01:43
3.22 GB
2010-10-05 07:41:58
1.05 GB
2016-10-05 20:03:21
2.8 GB
2011-03-11 07:52:28
1.89 GB
2015-04-26 08:41:42
1.48 GB
2016-05-22 06:19:59
42.3 GB
2014-07-25 01:36:23
6.41 GB
2016-03-30 10:59:33
1.94 GB
2015-09-21 10:13:08
1014 MB
2016-02-18 04:13:34
1.32 GB
2017-05-18 08:17:44
1.15 GB
2014-01-29 08:48:49
3.97 GB
2017-05-23 02:03:57
3.56 GB
2017-02-28 11:11:37

Torrent Description

Movie
Tom and Jerry: Spy Quest
Detected quality
HDRiP
Genre
Animation
Director
Spike Brandt
Title
Tom and Jerry Spy Quest 2015 720p WEB-DL XviD AC3-RARBG
UpNum
+2
DownNum
0
Category
Movies > Animation
Tom.and.Jerry.Spy.Quest.2015.720p.WEB-DL.XviD.AC3-RARBG

image
Screens :

image

image

image

image

image

image
Mediainfo :

Video
ID : 0
Format : MPEG-4 Visual
Format profile : [email protected]
Format settings, BVOP : No
Format settings, QPel : No
Format settings, GMC : No warppoints
Format settings, Matrix : Default (H.263)
Codec ID : XVID
Codec ID/Hint : XviD
Duration : 1h 12mn
Bit rate : 3 794 Kbps
Width : 1 280 pixels
Height : 718 pixels
Display aspect ratio : 16:9
Frame rate : 23.976 fps
Color space : YUV
Chroma subsampling : 4:2:0
Bit depth : 8 bits
Scan type : Progressive
Compression mode : Lossy
Bits/(Pixel*Frame) : 0.172
Stream size : 1.93 GiB (91%)
Writing library : Lavc56.13.100

Audio
ID : 1
Format : AC-3
Format/Info : Audio Coding 3
Mode extension : CM (complete main)
Format settings, Endianness : Big
Codec ID : 2000
Duration : 1h 12mn
Bit rate mode : Constant
Bit rate : 384 Kbps
Channel(s) : 6 channels
Channel positions : Front: L C R, Side: L R, LFE
Sampling rate : 48.0 KHz
Bit depth : 16 bits
Compression mode : Lossy
Stream size : 200 MiB (9%)
Alignment : Aligned on interleaves
Interleave, duration : 42 ms (1.00 video frame)
Interleave, preload duration : 512 ms



Torrent Description

Names
Tom and Jerry: Spy Quest/猫和老鼠:搜寻间谍
Caption
[720P][07-06] 猫和老鼠:搜寻间谍 Tom.and.Jerry.Spy.Quest.2015.720p.WEB-DL.XviD.AC3-RARBG
Year
2015
Nation
美国
Category
动画
Language
英语字 幕N/A
File Format
H264 + DD5.1
File Size
1CD
Director
Spike BrandtTony Cervone
Starring
Reese Hartwig ...Jonny Quest/Arnie Pantoja ...Hadji (voice)/James Hong ...Dr. Zin (voice)/Eric Bauza ...Dr. Benton Quest (voice)/Michael Hanks ...Race Bannon (voice)/Tia Carrere ...Jezebel Jade (voice)/Tim Matheson ...The President (voice)
Two groups of classic cartoon characters come together in this fun-filled crossover with the popular action-adventure animated series Jonny Quest. Fans of all ages won't want to miss this heart-stopping adventure as tussling twosome Tom and Jerry join Jonny Quest and his pal Hadji and embark on a dangerous spy mission in order to save the world. It's just another day at the beach for the dueling Tom and Jerry ... until they bump into world-class junior spies Jonny Quest and Hadji and their canine companion, Bandit. When longtime Quest family nemesis Dr. Zin discovers that Jonny's father, Dr. Benton Quest, possesses a device that could solve the world's energy problems, Zin sends his evil cat army to steal it and capture Benton and his bodyguard, Race Bannon. That's when Jonny and his new furry friends spring into action! Get set for intrigue, thrills and suspense for the whole family. Tia Carrere and Tim Matheson lend their voices. Video ID : 1 Format : AVC Format/Info : Advanced Video Codec Format profile : HighL4 Format settings, CABAC : Yes Format settings, ReFrames : 4 frames Codec ID : V_MPEG4/ISO/AVC Duration : 1h 12mn Bit rate : 5 173 Kbps Width : 1 912 pixels Height : 1 072 pixels Display aspect ratio : 16:9 Frame rate mode : Constant Frame rate : 23.976 fps Color space : YUV Chroma subsampling : 4:2:0 Bit depth : 8 bits Scan type : Progressive Bits/(Pixel*Frame) : 0.105 Stream size : 2.63 GiB (91%) Title : Tom.and.Jerry.Spy.Quest.2015.1080p.WEB-DL.DD5.1.H264-RARBG Language : English Default : Yes Forced : No Color range : Limited Color primaries : BT.709 Transfer characteristics : BT.709 Matrix coefficients : BT.709 Audio ID : 2 Format : AC-3 Format/Info : Audio Coding 3 Mode extension : CM (complete main) Format settings, Endianness : Big Codec ID : A_AC3 Duration : 1h 12mn Bit rate mode : Constant Bit rate : 384 Kbps Channel(s) : 6 channels Channel positions : Front: L C R, Side: L R, LFE Sampling rate : 48.0 KHz Bit depth : 16 bits Compression mode : Lossy Stream size : 200 MiB (7%) Title : Tom.and.Jerry.Spy.Quest.2015.1080p.WEB-DL.DD5.1.H264-RARBG Language : English Default : Yes Forced : No Menu 00:00:00.000 : en:1 00:07:45.000 : en:2 00:13:51.000 : en:3 00:20:37.000 : en:4 00:27:31.000 : en:5 00:34:56.000 : en:6 00:39:26.000 : en:7 00:45:32.000 : en:8 00:54:51.000 : en:9 01:01:04.000 : en:10 01:05:46.000 : en:11 01:10:06.000 : en:12 复制代码