Edge.of.Tomorrow.2014.1080p.WEB-DL.DD5.1.H264-RARBG

Torrent Base Info

Title:
Edge.of.Tomorrow.2014.1080p.WEB-DL.DD5.1.H264-RARBG
Total size:
3.51 GB
Create Time:
2014-09-09 07:47:10
Total Files:
4

Guess You Like

Files in this torrent

  • Edge.of.Tomorrow.2014.1080p.WEB-DL.DD5.1.H264-RARBG.torrent
  • Edge.of.Tomorrow.2014.1080p.WEB-DL.DD5.1.H264-RARBG
    • Edge.of.Tomorrow.2014.1080p.WEB-DL.DD5.1.H264-RARBG.mkv (3.51 GB)
    • Edge.of.Tomorrow.2014.1080p.WEB-DL.DD5.1.H264-RARBG.nfo (3.31 KB)
    • RARBG.com.mp4 (992 KB)
    • RARBG.com.txt (34 B)

Torrent Recommendation

2.28 GB
2015-12-20 16:27:19
966 MB
2009-05-29 07:51:39
4.86 GB
2017-01-15 07:27:57
2.45 GB
2015-11-09 05:09:37
1.21 GB
2014-12-25 04:02:03
2.72 GB
2016-07-18 22:30:52
2.52 GB
2016-04-24 03:23:51
1.76 GB
2013-01-25 06:31:18
5.34 GB
2016-02-11 03:43:47
3.39 GB
None
2.24 GB
2015-11-09 03:44:36
3.14 GB
2016-08-12 08:36:58
3.37 GB
2015-10-13 12:47:25
1.5 GB
2016-02-24 02:13:25
4.07 GB
2016-08-16 00:26:19
2.41 GB
2015-10-17 03:22:28
4.37 GB
None
987 MB
2008-04-19 05:56:20
6.03 GB
2016-05-08 11:18:52

Torrent Description

Movie
Edge of Tomorrow
Detected quality
1080p
Genres
Action
Director
Doug Liman
Language
English
Title
Edge of Tomorrow 2014 1080p WEB-DL DD5 1 H264-RARBG
UpNum
+2899
DownNum
-66
Category
Movies
Edge.of.Tomorrow.2014.1080p.WEB-DL.DD5.1.H264-RARBG

http://imdb.com/title/tt1631867/

Screens:
image
image
image
image
image
image
image
image
image
image
image
image

Info:

[mediainfo]

Video
ID : 1
Format : AVC
Format/Info : Advanced Video Codec
Format profile : [email protected]
Format settings, CABAC : Yes
Format settings, ReFrames : 5 frames
Codec ID : V_MPEG4/ISO/AVC
Duration : 1h 53mn
Bit rate : 3 957 Kbps
Width : 1 916 pixels
Height : 796 pixels
Display aspect ratio : 2.40:1
Frame rate mode : Constant
Frame rate : 23.976 fps
Color space : YUV
Chroma subsampling : 4:2:0
Bit depth : 8 bits
Scan type : Progressive
Bits/(Pixel*Frame) : 0.108
Stream size : 3.14 GiB (89%)
Title : Edge.of.Tomorrow.2014.1080p.WEB-DL.DD5.1.H264-RARBG
Language : English
Default : Yes
Forced : No
Color primaries : BT.709
Transfer characteristics : BT.709
Matrix coefficients : BT.709

Audio
ID : 2
Format : AC-3
Format/Info : Audio Coding 3
Mode extension : CM (complete main)
Format settings, Endianness : Big
Codec ID : A_AC3
Duration : 1h 53mn
Bit rate mode : Constant
Bit rate : 384 Kbps
Channel(s) : 6 channels
Channel positions : Front: L C R, Side: L R, LFE
Sampling rate : 48.0 KHz
Bit depth : 16 bits
Compression mode : Lossy
Stream size : 312 MiB (9%)
Title : Edge.of.Tomorrow.2014.1080p.WEB-DL.DD5.1.H264-RARBG
Language : English
Default : Yes
Forced : No

Menu
00:00:00.000 : en:1.
00:10:25.000 : en:2.
00:17:36.000 : en:3.
00:24:46.000 : en:4.
00:35:53.000 : en:5.
00:46:22.000 : en:6.
00:54:29.000 : en:7.
01:04:53.000 : en:8.
01:12:46.000 : en:9.
01:23:01.000 : en:10.
01:32:26.000 : en:11.
01:42:45.000 : en:12.
01:45:37.000 : en:13.



[/mediainfo]

Notes:
Greetz to everyone :)

Torrent Description

Names
Edge of Tomorrow/明日边缘/杀戮轮回/异空战士(港) / 明日边界(台)
Caption
[1080P][09-09] 明日边缘/杀戮轮回/异空战士(港)/明日边界(台) Edge.of.Tomorrow.2014.1080p.WEB-DL.DD5.1.H264-RARBG
Year
2014
Nation
美国/澳大利亚
Category
动作/科幻
Language
英语字 幕N/A
File Format
X264 + AC3
File Size
1CD 3.51 GiB
Director
道格・里曼 Doug Liman
Starring
汤姆・克鲁斯 Tom Cruise 威廉・凯奇Cage/艾米莉・布朗特 Emily Blunt ....丽塔・沃拉塔斯基 Rita/比尔・帕克斯顿 Bill Paxton ....士官长法瑞尔 Master Sergeant Farell/布莱丹・格里森 Brendan Gleeson ....布里格汉姆上将 General Brigham/夏洛特・莱李 Charlotte Riley ....兰斯 Nance/诺亚・泰勒 Noah Taylor ....卡特博士 Dr. Carter/劳拉・普沃 Lara Pulver ....卡伦・劳德 Karen Lord/约纳斯・阿姆斯特朗 Jonas Armstrong ....Skinner/托尼・魏 Tony Way ....Kimmel/奇克・盖瑞 Kick Gurry ....Griff/弗兰兹・德拉梅 Franz Drameh ....Ford/德拉古米尔・米希克 Dragomir Mrsic ....Kuntz/羽田昌义 Masayoshi Haneda ....Takeda/Terence Maynard ....Cruel Sergeant/Madeleine Mantock ....Julie/Assly Zandry ....Infirmary Nurse/Sebastian Blunt ....Young Soldier / Tarmac/Beth Goddard ....Secretary - Judith/Ronan Summers ....Dog Soldier 1/Aaron Romano ....Dog Soldier 2/Usman Akram ....Dog Soldier 3/Bentley Kalu ....Dog Soldier 4/Mairead McKinley ....Bar Maid/Andrew Neil ....Old Man/Martin Hyder ....Drunk
本片改编自日本作家樱坂洋的轻小说《杀戮轮回 All you need is kill》。故事背景设定于近未来的地球,在一场全面性的外星物种入侵战争中,凯奇(汤姆・克鲁斯 饰)被送到登陆战的海滩,每天都在重复着必败的死亡激战。而他从未接受过任何军事训练,却奉派到前线与敌人作战,这无疑是一场自杀的作战行动。就在他频死的那一刻,他意外地获得穿越时空回廊的能力,能够让他不断地重复生死轮回,一次又一次地重新回到战场。随着每一次醒来,比尔对战争的经验就更深一层,他越来越了解敌人的弱点,在战场上的存活时间也越来越久。他在“战场女武神”丽塔(艾米丽・布朗特 饰)的魔鬼训练下,战斗能力突飞猛进,两人一同并肩作战,终于让这场毫无希望的战争露出一线胜利的曙光。但是凯奇也面临一项痛苦的抉择…… 花絮 .本片改编自日本作家樱坂洋的轻小说《杀戮轮回》。但一开始剧组就认为原着的标题过于残酷,与电影版偏喜剧的气氛不符,之后剧组曾用过“我们都是凡人”的标题,最终改为“明日边缘”。 .影片大部分戏份在英国取景。拍摄地Leavesden Studio曾经是哈利・波特系列影片的片场。 .影片中比尔・凯奇中士的角色原定由布拉德・皮特出演。他曾经与导演里曼合作过《史密斯夫妇》。 .汤姆・克鲁斯自从2012年7月20日加入本片的剧组开始筹备工作。那距离他上一部电影《遗落战境》关机尚不到一周时间。 .汤姆・克鲁斯自掏腰包,花了10万美元为剧组举办了一个盛大的关机派对。但他本人由于还有戏份需要拍摄未能前来参加。 .丽塔的角色曾经考虑邀请《艺术家》的法国女星贝勒尼丝・贝乔出演。 .华纳公司为本片开启了一场史无前例的“预告特辑马拉松”,在同一天之内,发布了7支《明日边缘》相关的预告及制作特辑。 .拍摄本片期间,女主角艾米莉・布朗特怀孕了,因此她不得不拒绝拍摄一些动作戏,而剧组知道她拒绝的真正原因的人只有阿汤哥。 .2013年8月,媒体报道了《明星伙伴》男星杰里米・皮文加盟本片的消息,但他最终没有出现在影片的上映版当中。 .这并非是艾米莉・布朗特主演的第一部以时空穿梭为题材的科幻动作片,上一部是《环形使者》。