Strange.Blood.2015.1080p.BluRay.x264-MELiTE[rarbg]

Torrent Base Info

Title:
Strange.Blood.2015.1080p.BluRay.x264-MELiTE[rarbg]
Total size:
5.46 GB
Create Time:
2015-06-23 11:33:20
Total Files:
3

Guess You Like

Files in this torrent

  • Strange.Blood.2015.1080p.BluRay.x264-MELiTE[rarbg].torrent
  • Strange.Blood.2015.1080p.BluRay.x264-MELiTE[rarbg]
    • RARBG.com.txt (34 B)
    • m-strange-1080p.mkv (5.46 GB)
    • m-strange-1080p.nfo (3.75 KB)

Torrent Recommendation

979 MB
2015-04-18 19:34:06
3.07 GB
2017-06-22 15:30:50
2.44 GB
2015-12-08 01:29:44
1013 MB
2014-03-13 11:02:37
1.26 GB
None
1002 MB
2015-09-15 10:13:05
3.91 GB
2017-06-06 21:37:46
4.38 GB
2017-03-23 16:28:03
2.2 GB
2016-03-05 08:05:25
2.76 GB
2013-01-21 10:54:09
891 MB
2013-07-30 08:36:42
1.66 GB
2015-09-29 03:39:07
6.56 GB
2014-09-11 21:42:26
2.34 GB
2016-01-29 02:41:41
1.25 GB
2013-09-17 09:26:35
8.75 GB
2015-09-19 15:44:46
2.77 GB
2016-06-08 13:54:29
3.95 GB
2016-04-18 14:21:40

Torrent Description

Movie
Strange Blood
Detected quality
1080p
Genre
Horror
Director
Chad Michael Ward
Language
English
Title
Strange Blood 2015 1080p BluRay x264-MELiTE
UpNum
0
DownNum
0
Category
Movies > Highres Movies
image


SCREENSHOTS:-
image

MEDIAINFO:-
Video
ID : 1
Format : AVC
Format/Info : Advanced Video Codec
Format profile : [email protected]
Format settings, CABAC : Yes
Format settings, ReFrames : 4 frames
Codec ID : V_MPEG4/ISO/AVC
Duration : 1h 23mn
Bit rate : 8 567 Kbps
Width : 1 920 pixels
Height : 1 080 pixels
Display aspect ratio : 16:9
Frame rate mode : Constant
Frame rate : 23.976 fps
Color space : YUV
Chroma subsampling : 4:2:0
Bit depth : 8 bits
Scan type : Progressive
Bits/(Pixel*Frame) : 0.172
Stream size : 4.90 GiB (90%)
Writing library : x264 core 142 r2491 24e4fed
Encoding settings : cabac=1 / ref=4 / deblock=1:0:0 / analyse=0x3:0x113 / me=umh / subme=8 / psy=1 / psy_rd=1.00:0.00 / mixed_ref=1 / me_range=16 / chroma_me=1 / trellis=1 / 8x8dct=1 / cqm=0 / deadzone=21,11 / fast_pskip=0 / chroma_qp_offset=-2 / threads=12 / lookahead_threads=2 / sliced_threads=0 / nr=0 / decimate=1 / interlaced=0 / bluray_compat=0 / constrained_intra=0 / bframes=3 / b_pyramid=2 / b_adapt=2 / b_bias=0 / direct=3 / weightb=1 / open_gop=0 / weightp=2 / keyint=250 / keyint_min=23 / scenecut=40 / intra_refresh=0 / rc_lookahead=50 / rc=2pass / mbtree=1 / bitrate=8567 / ratetol=1.0 / qcomp=0.60 / qpmin=0 / qpmax=69 / qpstep=4 / cplxblur=20.0 / qblur=0.5 / ip_ratio=1.40 / aq=1:1.00
Language : English
Default : Yes
Forced : No
DURATION : 01:23:41.350000000
NUMBER_OF_FRAMES : 120392
NUMBER_OF_BYTES : 5376236803
_STATISTICS_WRITING_APP : mkvmerge v7.8.0 (\'River Man\') 64bit built on Mar 27 2015 16:31:37
_STATISTICS_WRITING_DATE_UTC : 2015-06-23 10:39:16
_STATISTICS_TAGS : BPS DURATION NUMBER_OF_FRAMES NUMBER_OF_BYTES

Audio
ID : 2
Format : DTS
Format/Info : Digital Theater Systems
Mode : 16
Format settings, Endianness : Big
Codec ID : A_DTS
Duration : 1h 23mn
Bit rate mode : Constant
Bit rate : 768 Kbps
Channel(s) : 6 channels
Channel positions : Front: L C R, Side: L R, LFE
Sampling rate : 48.0 KHz
Bit depth : 24 bits
Compression mode : Lossy
Stream size : 460 MiB (8%)
Language : English
Default : Yes
Forced : No

Menu
00:00:00.000 : en:00:00:00.000
00:05:42.926 : en:00:05:42.926
00:13:24.012 : en:00:13:24.012
00:20:15.840 : en:00:20:15.840
00:30:49.264 : en:00:30:49.264
00:40:14.412 : en:00:40:14.412
00:46:28.661 : en:00:46:28.661
00:53:45.722 : en:00:53:45.722
00:59:47.501 : en:00:59:47.501
01:07:08.900 : en:01:07:08.900
01:14:18.913 : en:01:14:18.913
01:20:57.352 : en:01:20:57.352

Torrent Description

Names
Strange Blood/异血/奇怪的血液病
Caption
[1080P][06-23] 异血/奇怪的血液病 Strange.Blood.2015.1080p.BluRay.x264-MELiTE
Year
2015
Nation
美国
Category
恐怖
Language
英语字 幕N/A
File Format
x264 + DTS
File Size
1CD 5.46 GiB
Director
Chad Michael Ward
Starring
Robert Brettenaugh ... Henry/Alexandra Bard ... Gemma/James Adam Lim ... Detective Joseph Song/Scott Harders ... Private Investigator/Michelle Gabriela Lamarr ... Goth Girl/Rosie Zwaduk ... Waitress/Thomas O'Halloran ... Jacob Moorehouse/Anna Harr ... Ella Moorehouse/Barbara Jadczak ... Oxana Lisovskaja/David Horn ... Bouncer/Athena Fatale ... Blood Woman/Ian Whittaker ... Fire Inspector/Charmaine Lewis ... Blood Woman/Sierra Santana ... Blood Woman/Lillian Winters ... Blood Woman
When a brilliant but obsessive scientist goes to extremes to develop a universal cure for all disease, he finds himself infected with a bizarre parasite that begins to transform him into a bloodthirsty madman. Time running out, he must find a way to stop the monster that is growing within and prevent the rest of the world from being "cured."

Torrent Description

Names
strange blood/嗜血寄生/奇怪的血
Caption
[1080P][06-28] 嗜血寄生[美国R级恐怖片] Strange.Blood.2015.1080p.BluRay.x264-MELiTE
Year
2015
Nation
美国
Category
恐怖
Language
英语
Director
Chad Michael Ward
Starring
Robert Brettenaugh/Alexandra Bard/亚当・詹姆斯/Scott Harders/Michelle Gabriela/Rosie Zwaduk
When a brilliant but obsessive scientist goes to extremes to develop a universal cure for all disease, he finds himself infected with a bizarre parasite that begins to transform him into a bloodthirsty madman. Time running out, he must find a way to stop the monster that is growing within and prevent the rest of the world from being "cured." is proud to present: Strange.Blood.2015.1080p.BluRay.x264-MELiTE ViDEO: 1920 x 1080 8 567 Kbps AUDiO: EN DTS 5.1 768 Kbps RUNTiME: 1h 23mn Language: English Subtitle(s): - RATiNG: 3,2/10 from 218 users IMDB: HTTP://WWW.IMDB.COM/TITLE/TT3304756/ iMARS - AN0NYM0US - VBT pH7 & 0ND of SiLK 2 0 1 2 [+] Show MediaInfo
pdf.worthsee.com PDF合并 PDF选页 PDF提取图片 PDF转HTML PDF分成单页 PDF提取文字