飞鸟娱乐(bbs.wofei.net).冰河世纪三部曲.720P.中英字幕

Torrent Base Info

Title:
飞鸟娱乐(bbs.wofei.net).冰河世纪三部曲.720P.中英字幕
Total size:
7.59 GB
Create Time:
2010-01-07 05:46:51
Total Files:
16

Guess You Like

Files in this torrent

  • 飞鸟娱乐(bbs.wofei.net).冰河世纪三部曲.720P.中英字幕.torrent
  • 飞鸟娱乐(bbs.wofei.net).冰河世纪三部曲.720P.中英字幕
    • [email protected]飞鸟娱乐.txt (1.06 KB)
    • 冰河世纪2(国英粤三语) Ice.Age.The.Melt.Down.2006.BluRay.720p.x264.AC3-WOFEI.jpg (305 KB)
    • 冰河世纪2(国英粤三语) Ice.Age.The.Melt.Down.2006.BluRay.720p.x264.AC3-WOFEI.mkv (2.9 GB)
    • 冰河世纪3(国英粤三语) Ice.Age.3.Dawn.of.the.Dinosaurs.2009.BluRay.720p.x264.AC3-WOFEI.jpg (293 KB)
    • 冰河世纪3(国英粤三语) Ice.Age.3.Dawn.of.the.Dinosaurs.2009.BluRay.720p.x264.AC3-WOFEI.mkv (2.64 GB)
    • 冰河世纪(国英粤三语) Ice.Age.2002.BluRay.720p.x264.AC3-WOFEI.jpg (222 KB)
    • 冰河世纪(国英粤三语) Ice.Age.2002.BluRay.720p.x264.AC3-WOFEI.mkv (2.05 GB)
    • 飞鸟网-和浪子一起来开心农场偷菜吧.url (305 B)
    • 飞鸟娱乐(bbs.wofei.net).冰河世纪.720P.中英字幕.jpg (82.6 KB)
    • 飞鸟娱乐(bbs.wofei.net).冰河世纪2.720P.中英字幕.jpg (161 KB)
    • 飞鸟娱乐(bbs.wofei.net).冰河世纪3.720P.中英字幕.jpg (140 KB)
    • 飞鸟娱乐(bbs.wofei.net).冰河世纪三部曲.720P.中英字幕.txt (23.8 KB)
    • 飞鸟娱乐-边看电影边学英语,娱乐学习两不误.url (271 B)
    • 飞鸟娱乐主页-下载免费电影的绝佳选择!.htm (5.99 KB)
    • 和漂亮美眉亲密接触.url (272 B)
    • 小浪影视-下载中英字幕电影的好地方.url (270 B)

Torrent Recommendation

949 MB
2014-09-11 04:55:03
516 MB
2016-12-25 04:27:01
868 MB
2015-03-07 14:53:20
3.6 GB
2016-01-22 12:37:25
3.07 GB
2017-02-06 00:19:31
461 MB
2009-07-12 05:44:26
8.3 GB
2015-11-29 22:36:52
3.08 GB
2016-10-01 15:27:03
1.71 GB
2016-07-07 12:02:30
2.12 GB
2017-03-26 08:30:23
2.74 GB
2016-02-18 03:08:11
651 MB
2008-09-19 05:47:29
6.81 GB
2015-11-29 11:07:20
3.56 GB
2017-02-10 01:58:17
1.89 GB
2013-04-25 14:08:29
1.15 GB
2016-09-10 09:26:16
2.56 GB
2016-09-27 07:04:37
2.65 GB
2016-04-02 15:49:35
1.09 GB
2015-01-31 11:27:23

Torrent Description

Names
Ice Age/冰河世纪/中英字幕/中文字幕/英中字幕/英文字幕
Caption
【飞鸟影视BT组】冰河世纪三部曲(国英粤三语) Ⅰ.Ⅱ.Ⅲ.720p.BluRay.x264.AC3-WOFEI 中英字幕
Year
2002
Nation
美国
Category
冒险/动画/家庭
Language
英语/普通话/粤语
File Format
X264 + AC3
Video Size
1280 x 694
File Size
1CD 2.05G
Director
克里斯·韦奇 Chris Wedge卡洛斯·沙尔丹哈 Carlos Saldanha (co-director)
Starring
雷·罗马诺 Ray Romano .....Manfred (voice)/丹尼斯·利瑞 Denis Leary .....Diego (voice)/约翰·雷吉扎莫 John Leguizamo .....Sid (voice)/高兰·维斯耶克 Goran Visnjic .....Soto (voice)/杰克·布莱克 Jack Black .....Zeke (voice)/塞德里克·凯尔斯 Cedric the Entertainer .....Carl (voice)/戴德里克·巴德 Diedrich Bader .....Saber-Toothed Tiger (voice)/艾伦·图代克 Alan Tudyk .....Oscar/Dab the Dodo (voice)/简·科拉克斯基 Jane Krakowski .....Female Sloth (voice)/乔什·汉弥尔顿 Josh Hamilton .....Dodo/Aardvark (voice)/克里斯·韦奇 Chris Wedge .....Dodo/Scrat (voice)/斯蒂芬·鲁特 Stephen Root .....Rhino/Start (voice)/Lorri Bagley .....Female Sloth (voice)/Peter Ackerman .....Dodo/Macrauchenia (voice)/P.J. Benjamin .....Dodo (voice)/Denny Dillon .....Glyptodont (voice)/Mitzi McCall .....Glyptodont (voice)/Tara Strong .....Baby Moeritherium (voice)
冰河期使得动物们纷纷迁移寻找食物,心地善良的长毛象曼菲德、嗜食的树獭希德、狡猾的剑齿虎迭哥,这三只性格迥异的动物为了使一个人类的小孩重返家园,邂逅相聚,组成了一支临时护送队,踏上了漫漫寻亲路。他们不但要充当小宝宝的保姆,还要历经冰河与冰山各种千惊万险护送他回家。一路上这三只动物矛盾重生,迭哥心生毒计,想诱领队伍踏入自己族类设下的致命伏击,但在他们共同经历了雪崩、饥荒等无数险境之后,这些与严酷环境抗争的经历使迭哥开始对自己的计划动摇了…… 幕后: 本片故事围绕着三只冰河时期的史前动物和一个人类弃婴展开。影片的精髓在于它的细节,开场有很长一段松鼠埋松果的段落,没有一句台词,夸张但没破坏喜剧效果(松鼠欲把松果钉入冰天雪地里,造成天塌地裂的大雪崩),令人捧腹。故事主线中最好笑的要数那几场模仿体育比赛的戏,有橄榄球、溜冰、滑雪、雪橇车等项目,不仅创意精彩,处理也出神入化,如同观赏一场场迷你世界级锦标赛。 E:\rmvb资源\[高清MKV收藏 www.wofei.net ]\飞鸟娱乐(bbs.wofei.net).冰河世纪三部曲.720P.中英字幕\冰河世纪(国英粤三语) Ice.Age.2002.BluRay.720p.x264.AC3-WOFEI.mkv General Complete name : E:\rmvb资源\[高清MKV收藏 www.wofei.net ]\飞鸟娱乐(bbs.wofei.net).冰河世纪三部曲.720P.中英字幕\冰河世纪(国英粤三语) Ice.Age.2002.BluRay.720p.x264.AC3-WOFEI.mkv Format : Matroska File size : 2.05 GiB Duration : 1h 21mn Overall bit rate : 3 619 Kbps Encoded date : UTC 2010-01-07 03:23:16 Writing application : mkvmerge v2.2.0 ('Turn It On Again') built on Mar 4 2008 12:58:26 Writing library : libebml v0.7.7 + libmatroska v0.8.1 Video #1 ID : 1 Format : AVC Format/Info : Advanced Video Codec Format profile : [email protected] Format settings, CABAC : Yes Format settings, ReFrames : 4 frames Muxing mode : Container [email protected] Codec ID : V_MPEG4/ISO/AVC Duration : 1h 21mn Bit rate : 1 979 Kbps Nominal bit rate : 2 047 Kbps Width : 1 280 pixels Height : 694 pixels Display aspect ratio : 16:9 Frame rate : 23.976 fps Resolution : 8 bits Colorimetry : 4:2:0 Scan type : Progressive Bits/(Pixel*Frame) : 0.093 Stream size : 1.12 GiB (55%) Writing library : x264 core 68 r1183M f21daff Encoding settings : cabac=1 / ref=4 / deblock=1:-1:-1 / analyse=0x3:0x113 / me=umh / subme=7 / psy_rd=1.0:0.0 / mixed_ref=1 / me_range=16 / chroma_me=1 / trellis=2 / 8x8dct=1 / cqm=0 / deadzone=21,11 / chroma_qp_offset=-2 / threads=6 / nr=0 / decimate=1 / mbaff=0 / bframes=3 / b_pyramid=0 / b_adapt=1 / b_bias=0 / direct=3 / wpredb=1 / keyint=250 / keyint_min=25 / scenecut=40 / rc=2pass / bitrate=2047 / ratetol=1.0 / qcomp=0.60 / qpmin=10 / qpmax=51 / qpstep=4 / cplxblur=20.0 / qblur=0.5 / vbv_maxrate=50000 / vbv_bufsize=50000 / ip_ratio=1.40 / pb_ratio=1.30 / aq=1:1.00 Language : English Audio #2 ID : 2 Format : AC-3 Format/Info : Audio Coding 3 Codec ID : A_AC3 Duration : 1h 21mn Bit rate mode : Constant Bit rate : 448 Kbps Channel(s) : 6 channels Channel positions : Front: L C R, Surround: L R, LFE Sampling rate : 48.0 KHz Stream size : 260 MiB (12%) Title : 英语 Audio #3 ID : 3 Format : AC-3 Format/Info : Audio Coding 3 Codec ID : A_AC3 Duration : 1h 21mn Bit rate mode : Constant Bit rate : 448 Kbps Channel(s) : 6 channels Channel positions : Front: L C R, Surround: L R, LFE Sampling rate : 48.0 KHz Stream size : 260 MiB (12%) Title : 国语 Audio #4 ID : 4 Format : AC-3 Format/Info : Audio Coding 3 Format profile : Dolby Digital Codec ID : A_AC3 Duration : 1h 21mn Bit rate mode : Constant Bit rate : 224 Kbps Channel(s) : 2 channels Channel positions : L R Sampling rate : 48.0 KHz Stream size : 130 MiB (6%) Title : 公映 Audio #5 ID : 5 Format : AC-3 Format/Info : Audio Coding 3 Codec ID : A_AC3 Duration : 1h 21mn Bit rate mode : Constant Bit rate : 448 Kbps Channel(s) : 6 channels Channel positions : Front: L C R, Surround: L R, LFE Sampling rate : 48.0 KHz Stream size : 260 MiB (12%) Title : 粤语 Text #6 ID : 6 Format : SSA Codec ID : S_TEXT/SSA Codec ID/Info : Sub Station Alpha Title : 中英字幕 Text #7 ID : 7 Format : SSA Codec ID : S_TEXT/SSA Codec ID/Info : Sub Station Alpha Title : 英中字幕 Text #8 ID : 8 Format : SSA Codec ID : S_TEXT/SSA Codec ID/Info : Sub Station Alpha Title : 中文字幕 Text #9 ID : 9 Format : SSA Codec ID : S_TEXT/SSA Codec ID/Info : Sub Station Alpha Title : 英文字幕 Text #10 ID : 10 Format : UTF-8 Codec ID : S_TEXT/UTF8 Codec ID/Info : UTF-8 Plain Text Title : 中英字幕
pdf.worthsee.com PDF合并 PDF选页 PDF提取图片 PDF转HTML PDF分成单页 PDF提取文字