飞鸟娱乐[bbs.hdbird.com].第七阶.720p.中文字幕

Torrent Base Info

Title:
飞鸟娱乐[bbs.hdbird.com].第七阶.720p.中文字幕
Total size:
2.05 GB
Create Time:
2012-06-12 06:23:59
Total Files:
9

Guess You Like

Files in this torrent

  • 飞鸟娱乐[bbs.hdbird.com].第七阶.720p.中文字幕.torrent
  • 飞鸟娱乐[bbs.hdbird.com].第七阶.720p.中文字幕
    • [email protected]飞鸟娱乐.txt (1.27 KB)
    • 第七阶 Fase.7.2011.BluRay.720p.x264.AC3-WOFEI.jpg (195 KB)
    • 第七阶 Fase.7.2011.BluRay.720p.x264.AC3-WOFEI.mkv (2.05 GB)
    • 第七阶.jpg (427 KB)
    • 第七阶.txt (3.75 KB)
    • 飞鸟网-和浪子一起来开心农场偷菜吧.url (281 B)
    • 飞鸟娱乐-边看电影边学英语,娱乐学习两不误.url (272 B)
    • 飞鸟娱乐网址更新器.rar (114 KB)
    • 老调网-下载中英字幕电影的好地方.url (272 B)

Torrent Recommendation

862 MB
2014-09-15 03:48:45
5.41 GB
2016-03-24 00:16:20
464 MB
2009-01-13 01:32:04
894 MB
2016-06-28 13:52:43
998 MB
2013-06-06 07:09:54
1.23 GB
2017-03-04 16:22:43
1.23 GB
2013-12-02 15:00:32
1.03 GB
2014-12-15 12:25:43
2.73 GB
2014-03-22 15:02:00
9 GB
2012-02-04 01:31:53
2.71 GB
2016-12-28 15:30:48
1.7 GB
2016-02-26 09:37:41
1.3 GB
2015-11-18 03:31:01
1.82 GB
2016-09-01 07:09:59
1.87 GB
2016-07-19 18:17:56
2.19 GB
2010-12-09 08:36:05
2.6 GB
2011-03-07 13:02:04

Torrent Description

Names
Fase 7/第七阶/第七期/中文
Caption
第七阶 Fase.7.2011.BluRay.720p.x264.AC3-WOFEI 中文字幕
Year
2011
Nation
阿根廷
Category
科幻/喜剧/动作
Language
西班牙语
File Format
X264 + AC3
Video Size
1280 x 720
File Size
1CD 2.05GB
Director
尼可拉斯·古德巴特 Nicolas Goldbart
Starring
丹尼尔·亨德尔 Daniel Hendler ....Coco/费德里科·路皮 Federico Luppi ....Zanutto/Jazmín Stuart ....Pipi/Yayo Guridi ....Horacio/Carlos Bermejo ....Guglierini/Abian Vainstein ....Lange
柯克跟他怀孕七个月的老婆皮皮刚搬进新家,就因为一场突然爆发的致命流感而被困在自己的公寓里。旁边的邻居们变成了非常可怕的敌人。柯克被迫与古怪却拥有很多储备的邻居欧拉西奥一起行动,保护自己及妻子。与此同时,整个世界已不是人们熟悉的那个样子了…… I:\rmvb资源\[高清MKV收藏 www.hdbird.com ]\飞鸟娱乐[bbs.hdbird.com].第七阶.720p.中文字幕\第七阶 Fase.7.2011.BluRay.720p.x264.AC3-WOFEI.mkv General Complete name : I:\rmvb资源\[高清MKV收藏 www.hdbird.com ]\飞鸟娱乐[bbs.hdbird.com].第七阶.720p.中文字幕\第七阶 Fase.7.2011.BluRay.720p.x264.AC3-WOFEI.mkv Format : Matroska File size : 2.05 GiB Duration : 1h 37mn Overall bit rate : 3 020 Kbps Encoded date : UTC 2012-06-12 06:14:09 Writing application : mkvmerge v3.4.0 ('Rapunzel') 编译于 May 15 2010 09:38:20 Writing library : libebml v0.8.0 + libmatroska v0.9.0 Video #1 ID : 1 Format : AVC Format/Info : Advanced Video Codec Format profile : [email protected] Format settings, CABAC : Yes Format settings, ReFrames : 4 frames Muxing mode : Container [email protected] Codec ID : V_MPEG4/ISO/AVC Duration : 1h 37mn Bit rate : 2 512 Kbps Nominal bit rate : 2 571 Kbps Width : 1 280 pixels Height : 720 pixels Display aspect ratio : 16:9 Frame rate : 23.976 fps Resolution : 8 bits Colorimetry : 4:2:0 Scan type : Progressive Bits/(Pixel*Frame) : 0.114 Stream size : 1.70 GiB (83%) Writing library : x264 core 120 r2164 da19765 Encoding settings : cabac=1 / ref=4 / deblock=1:-1:-1 / analyse=0x3:0x113 / me=umh / subme=6 / psy=1 / psy_rd=1.00:0.00 / mixed_ref=1 / me_range=16 / chroma_me=1 / trellis=2 / 8x8dct=1 / cqm=0 / deadzone=21,11 / fast_pskip=1 / chroma_qp_offset=-2 / threads=6 / sliced_threads=0 / nr=0 / decimate=1 / interlaced=0 / bluray_compat=0 / constrained_intra=0 / bframes=3 / b_pyramid=0 / b_adapt=1 / b_bias=0 / direct=3 / weightb=1 / open_gop=0 / weightp=2 / keyint=240 / keyint_min=23 / scenecut=40 / intra_refresh=0 / rc_lookahead=40 / rc=2pass / mbtree=1 / bitrate=2571 / ratetol=1.0 / qcomp=0.60 / qpmin=10 / qpmax=51 / qpstep=4 / cplxblur=20.0 / qblur=0.5 / vbv_maxrate=50000 / vbv_bufsize=50000 / nal_hrd=none / ip_ratio=1.40 / aq=1:1.00 Language : English Audio #2 ID : 2 Format : AC-3 Format/Info : Audio Coding 3 Codec ID : A_AC3 Duration : 1h 37mn Bit rate mode : Constant Bit rate : 448 Kbps Channel(s) : 6 channels Channel positions : Front: L C R, Surround: L R, LFE Sampling rate : 48.0 KHz Stream size : 311 MiB (15%) Text #3 ID : 3 Format : UTF-8 Codec ID : S_TEXT/UTF8 Codec ID/Info : UTF-8 Plain Text Title : 中文