飞鸟娱乐[bbs.hdbird.com].黄海导演剪辑版.720p.中文字幕

Torrent Base Info

Title:
飞鸟娱乐[bbs.hdbird.com].黄海导演剪辑版.720p.中文字幕
Total size:
2.73 GB
Create Time:
2011-07-22 16:15:28
Total Files:
9

Guess You Like

Files in this torrent

  • 飞鸟娱乐[bbs.hdbird.com].黄海导演剪辑版.720p.中文字幕.torrent
  • 飞鸟娱乐[bbs.hdbird.com].黄海导演剪辑版.720p.中文字幕
    • [email protected]飞鸟娱乐.txt (1.27 KB)
    • 飞鸟网-和浪子一起来开心农场偷菜吧.url (281 B)
    • 飞鸟娱乐-边看电影边学英语,娱乐学习两不误.url (272 B)
    • 飞鸟娱乐网址更新器.rar (114 KB)
    • 黄海导演剪辑版 Yellow Sea.2010.DC.BluRay.720p.x264.AC3-WOFEI.jpg (177 KB)
    • 黄海导演剪辑版 Yellow Sea.2010.DC.BluRay.720p.x264.AC3-WOFEI.mkv (2.73 GB)
    • 黄海导演剪辑版.jpg (141 KB)
    • 黄海导演剪辑版.txt (7.82 KB)
    • 小浪影视-下载中英字幕电影的好地方.url (270 B)

Torrent Recommendation

3.33 GB
2016-05-20 04:52:40
7.66 GB
2015-04-16 15:39:43
2.16 GB
2016-03-31 15:10:35
2.51 GB
2014-06-23 01:21:34
2.81 GB
2013-11-27 05:47:18
1.48 GB
2016-12-11 02:12:43
1.15 GB
2015-01-30 15:04:46
19.8 GB
2016-01-16 08:32:35
423 MB
2014-09-23 06:45:33
1.76 GB
2014-10-26 05:09:15
2.55 GB
2015-07-05 19:19:45
3.08 GB
2016-11-16 21:47:15
3 GB
2017-02-11 03:48:16
2.35 GB
2017-06-29 22:24:06
9.05 GB
2014-12-24 10:44:51
42.4 GB
2016-06-19 17:25:09
2.3 GB
2015-05-10 07:45:43
1.48 GB
None
4.66 GB
2016-03-01 08:35:46
438 MB
2007-10-17 03:44:48

Torrent Description

Names
The Yellow Sea/黄海/中文
Caption
【飞鸟影视BT组】黄海导演剪辑版 Yellow Sea.2010.DC.BluRay.720p.x264.AC3-WOFEI 韩语中字
Year
2010
Nation
韩国
Category
犯罪/剧情/惊悚
Language
韩语
File Format
X264 + AC3
Video Size
1280 x 720
File Size
1CD
Director
罗宏镇 Hong-jin Na
Starring
金允石 Yun-seok Kim/河正宇 Jung-woo Ha/赵成夏 Sung-ha Cho/李艾 Elle Lee/李哲民 Cheol-min Lee/方惠英 Hae-young Bang/朴炳垠 Byung-eun Park
九南本是延边的出租车司机,妻子为了挣钱到韩国打工,自己过着落魄灰败的生活。他已经六个月没有妻子的消息了,并整日出入麻将馆,债台高筑。一天,他遇到买凶杀人的联络人诱使他偷渡到韩国行凶。为了讨债,也为了寻觅妻子的踪迹,九南越过了黄海…… 来到首尔后,九南一方面寻找杀人机会,一方面四处打听妻子的踪迹。然而,就在目标人物出现在九南眼前时,他却让对方逃脱了。谁知,九南就此背负上了杀人的罪名,受到警方追击。而另一厢,真正的幕后主使为了消除委托杀人的证据,联络当时在延边接触九南的联络人,欲联手致九南于死地…… 幕后制作 《黄海》讲述一名生活在中国延边的男子为了还赌债偷渡到韩国成为杀手的故事,因罗宏镇与《追击者》的两位演员再度携手而备受期待。影片的投资方之一是美国的二十世纪福斯影业,而韩国影片从筹备阶段就得到好莱坞主流公司的投资,这还是继朴赞郁《蝙蝠》之后的第二遭。 在问到为何会给影片取名"黄海"时,罗宏镇表示这是在写剧本之际自然而然地想到的,而同样,观众在看这部影片时脑海也会自然而然地浮现这个名字。罗宏镇还大力表扬了再度合作的两位演员,称赞金允石内功深厚,随时随地都能爆发让人惊叹的演技力;而河正宇更倾向于"方法派",是一位本能性的通过身体表演的演员,他会在拍片期间彻底地变成片中的那个角色。 2008年的《追击者》掀起了延续至今的韩国影坛19禁犯罪惊悚热潮,34岁的罗宏镇凭借该片一鸣惊人,也奠定了金允石、河正宇的一线演技派地位。三人之后一次小聚当中,罗宏镇首次提出了关于"从延边来的男子"30分钟小故事的构想,小故事渐渐变成了大故事。比起《追击者》,《黄海》的剧本更加感性和细腻,导演在当中加入了很多个人的情感因素。影片于09年底开拍,还曾到中国大连等地取景,但并非一切顺利,由于对外景和天气条件的依赖而一再拖延了进度,原定的暑期档也推迟到了年末上映。 韩国影坛新的铁三角 2008年上映的《追击者》因动员了全国500万人次的观众,并或各大国际影展的青睐,成为韩国影史上当之无愧的一匹黑马。新人导演罗宏镇也脱颖而出,和两位主演河正宇、金允锡成为黄金铁三角。因此,三人再次联手的《黄海》成为最受瞩目的最新力作。 前作《追击者》不仅在票房上有令人惊喜的表现,更可贵的是该片开创了韩国惊险悬疑片的新篇章,从故事架构到拍摄手法,甚至表演风格都有令人眼前一亮的闪光点。在61届戛纳电影节上,影片得到了美国20世纪福克斯公司的青睐,公司高层在得知罗宏镇正筹拍自己的第二部电影时,主动提供了20%的资金,希望促成黄金铁三角的再次聚首,并邀请罗赴好莱坞拍片,并购买了《黄海》的好莱坞版的拍摄权。此举不仅引起好莱坞的关注,更连锁引发欧洲和日本影坛的热情,纷纷向罗宏镇投去了橄榄枝。 然而,意外的关注与热情并没有冲昏罗宏镇的头脑。他仍是一丝不苟地完成并修改了剧本,耗时一年,辗转韩国全境及中国大连、延边等地拍摄,克服了诸多困难。罗宏镇表示,每一次拍摄都是新的开始,没有人知道下一部是否可以成功。即便如此,河正宇和金允锡的归队已充分证明罗宏镇的号召力,以及影片的潜在实力。对河正宇来说,加入罗宏镇的班底就意味着再次抓住了施展才华的良机。在《追击者》、《野兽男孩》、《国家代表》等片中,河正宇已经形成了一种"动物性"的演出方式,在聚光灯下便可形成条件反射般的投入,将角色完全融化在自己体内,在由内而外体现于举手投足。 为了更好地刻画人物,河正宇在300天的拍摄期内不剪头发、蓄须、减重,从型男一下子转型为落魄男,并以顽强的意志和敬业心完成了片中大量的动作场面。河正宇在发布会上表示,这部影片是他从影以来戏份最重的作品,几乎占满了全片120分钟。另一主演金允锡则恰恰相反,为了配合角色需要,他短期内迅速增重8kg,并认真分析角色特点和内心世界,正式拍摄时已具备良好状态,得到剧组成员一致赞叹。由于两位主要人物都来自中国延边地区,而且沉迷麻将,河正宇和金允锡在开拍前三个月一开始学习延边方言,并追随麻将老师沿袭麻将要领,到拍摄后期,两人走在延边街头已于路人无异,甚至打了一手漂亮的麻将牌。河正宇对此戏谑地表示,这是意外的收获。 险象环生的实景拍摄 影片由于涉及韩中两地,外景地的涵盖面甚广,除了首尔市内,还包括釜山、仁川、报恩、菁州、顺天、庆闻、蔚山等地,远至中国延边、大连,乃至哈尔滨、齐齐哈尔等地,被剧组号称"跨国长征"。除此之外,另一个吸引眼球的元素是来自罗宏镇的招牌式的刺激场面。《追击者》的成功已经印证了观众对情节紧迫感的兴味无穷,特别是通过紧张的"追击"实现热血沸腾的观影效果。此次,罗宏镇特别安排了此前韩国影史绝无仅有的"追击+翻车"场面。这一幕发生在釜山市内,共动员参演人员150名、摄像机13台、机动车50辆、大巴20辆。拍摄得到了釜山影像委员会的大力支持,在市中心半径3公里内实行交通管制。为了捕捉到多角度的画面,13台摄影机被安排在不同的角度,由专人掌控。值得一提的是,片中有一处拖车翻车由于难度较大,需要一次成功,否则会带来巨大的经费损失。尽管拍摄前已做好十足准备,但意想不到的事情还是发生。在拍摄拖车行进镜头时,有一架摄像机突然失灵,由于时间紧促,无法通知驾驶拖车的司机停车,车子急速向前行驶,有可能撞毁前置玻璃,导致另外两至三台摄像机失灵。于是,剧组人员只好不顾危险,人为阻止拖车前进,才没有发生更严重的损失。调整之后,重新拍摄,武术指导亲自驾车,使拍摄一次成功。 I:\rmvb资源\[高清MKV收藏 www.hdbird.com ]\飞鸟娱乐[bbs.hdbird.com].黄海导演剪辑版.720p.中文字幕\黄海导演剪辑版 Yellow Sea.2010.DC.BluRay.720p.x264.AC3-WOFEI.mkv General Complete name : I:\rmvb资源\[高清MKV收藏 www.hdbird.com ]\飞鸟娱乐[bbs.hdbird.com].黄海导演剪辑版.720p.中文字幕\黄海导演剪辑版 Yellow Sea.2010.DC.BluRay.720p.x264.AC3-WOFEI.mkv Format : Matroska File size : 2.73 GiB Duration : 2h 20mn Overall bit rate : 2 783 Kbps Encoded date : UTC 2011-07-22 16:02:19 Writing application : mkvmerge v3.4.0 ('Rapunzel') 编译于 May 15 2010 09:38:20 Writing library : libebml v0.8.0 + libmatroska v0.9.0 Video #1 ID : 1 Format : AVC Format/Info : Advanced Video Codec Format profile : [email protected] Format settings, CABAC : Yes Format settings, ReFrames : 4 frames Muxing mode : Container [email protected] Codec ID : V_MPEG4/ISO/AVC Duration : 2h 20mn Bit rate : 2 280 Kbps Nominal bit rate : 2 334 Kbps Width : 1 280 pixels Height : 720 pixels Display aspect ratio : 16:9 Frame rate : 23.976 fps Resolution : 8 bits Colorimetry : 4:2:0 Scan type : Progressive Bits/(Pixel*Frame) : 0.103 Stream size : 2.24 GiB (82%) Writing library : x264 core 115 r1995 c1e60b9 Encoding settings : cabac=1 / ref=3 / deblock=1:0:0 / analyse=0x3:0x113 / me=hex / subme=7 / psy=1 / psy_rd=1.00:0.00 / mixed_ref=1 / me_range=16 / chroma_me=1 / trellis=1 / 8x8dct=1 / cqm=0 / deadzone=21,11 / fast_pskip=1 / chroma_qp_offset=-2 / threads=6 / sliced_threads=0 / nr=0 / decimate=1 / interlaced=0 / bluray_compat=0 / constrained_intra=0 / bframes=3 / b_pyramid=2 / b_adapt=1 / b_bias=0 / direct=1 / weightb=1 / open_gop=0 / weightp=2 / keyint=250 / keyint_min=23 / scenecut=40 / intra_refresh=0 / rc_lookahead=40 / rc=2pass / mbtree=1 / bitrate=2334 / ratetol=1.0 / qcomp=0.60 / qpmin=0 / qpmax=69 / qpstep=4 / cplxblur=20.0 / qblur=0.5 / vbv_maxrate=50000 / vbv_bufsize=50000 / nal_hrd=none / ip_ratio=1.40 / aq=1:1.00 Language : English Audio #2 ID : 2 Format : AC-3 Format/Info : Audio Coding 3 Codec ID : A_AC3 Duration : 2h 20mn Bit rate mode : Constant Bit rate : 448 Kbps Channel(s) : 6 channels Channel positions : Front: L C R, Surround: L R, LFE Sampling rate : 48.0 KHz Stream size : 450 MiB (16%) Text #3 ID : 3 Format : UTF-8 Codec ID : S_TEXT/UTF8 Codec ID/Info : UTF-8 Plain Text Title : 中文
convert.freelrc.com 云音乐格式在线转换 QMC转MP3 QMC0转MP3 QMC3转MP3 QMCOGG转OGG QMCFLAC转FLAC NCM转MP3