飞鸟娱乐[bbs.hdbird.com].机器人大爷.720p.日语中字

Torrent Base Info

Title:
飞鸟娱乐[bbs.hdbird.com].机器人大爷.720p.日语中字
Total size:
2.18 GB
Create Time:
2012-09-20 06:39:23
Total Files:
9

Guess You Like

Files in this torrent

  • 飞鸟娱乐[bbs.hdbird.com].机器人大爷.720p.日语中字.torrent
  • 飞鸟娱乐[bbs.hdbird.com].机器人大爷.720p.日语中字
    • [email protected]飞鸟娱乐.txt (1.27 KB)
    • 飞鸟网-和浪子一起来开心农场偷菜吧.url (281 B)
    • 飞鸟娱乐-边看电影边学英语,娱乐学习两不误.url (272 B)
    • 飞鸟娱乐网址更新器.rar (114 KB)
    • 机器人大爷 Robo Ji.2012.BluRay.720p.x264.AC3-WOFEI.jpg (284 KB)
    • 机器人大爷 Robo Ji.2012.BluRay.720p.x264.AC3-WOFEI.mkv (2.18 GB)
    • 机器人大爷机器.jpg (141 KB)
    • 机器人大爷机器.txt (4.17 KB)
    • 老调网-下载中英字幕电影的好地方.url (272 B)

Torrent Description

Names
Robo-G/机器人大爷机器/机器老男孩(台)/中文
Caption
机器人大爷 Robo Ji.2012.BluRay.720p.x264.AC3-WOFEI 日语中字
Year
2012
Nation
日本
Category
剧情/科幻
Language
日语
File Format
x264 + AC3
Video Size
1280 x 688
File Size
1CD 2.18G
Director
矢口史靖 Yaguchi Shinobu
Starring
吉高由里子 Yuriko Yoshitaka/滨田岳 Gaku Hamada/川岛润哉 Junya Kawashima/田畑智子 Tomoko Tabata/米基·卡齐斯 Mickey Curtis/小野武彦 Takehiko Ono/和久井映见 Emi Wakui/Chan Kawai ....(as Shôgo Kawai)/竹中直人 Naoto Takenaka
家电制造商木村电器里不受待见的社员三人组--小林、太田、长井接到大权独揽的社长命令,要求要开发一款时下流行的直立行走机器人。其目的是在即将举行的机器人博览会上为企业做广告。但是,在距离机器人博览会一周的时候,制作中的机器人"新海风"却摔了个七零八落!陷入绝境的三个人于是决定在机器人中放入真人来蒙混过关。为了找寻能够刚好装入机器人外壳的人,三人展开了虚构的试镜,并最终选中了退休独居已久的老人铃木重光(73岁)。但是,没想到铃木是个奇人老头。。。再加上迷恋"新海风"的机器人宅的女学生叶子也被卷了进来,事态朝着预想不到的方向发展起来 E:\rmvb资源\[高清MKV收藏 www.hdbird.com ]\飞鸟娱乐[bbs.hdbird.com].机器人大爷.720p.日语中字\机器人大爷 Robo Ji.2012.BluRay.720p.x264.AC3-WOFEI.mkv General Unique ID : 221171421715232828415349064048361644160 (0xA66410FF17BE4C3E9AE99D4E9710A080) Complete name : E:\rmvb资源\[高清MKV收藏 www.hdbird.com ]\飞鸟娱乐[bbs.hdbird.com].机器人大爷.720p.日语中字\机器人大爷 Robo Ji.2012.BluRay.720p.x264.AC3-WOFEI.mkv Format : Matroska Format version : Version 2 File size : 2.18 GiB Duration : 1h 51mn Overall bit rate : 2 805 Kbps Encoded date : UTC 2012-09-20 06:16:20 Writing application : mkvmerge v3.4.0 ('Rapunzel') 编译于 May 15 2010 09:38:20 Writing library : libebml v0.8.0 + libmatroska v0.9.0 Video #1 ID : 1 Format : AVC Format/Info : Advanced Video Codec Format profile : [email protected] Format settings, CABAC : Yes Format settings, ReFrames : 5 frames Codec ID : V_MPEG4/ISO/AVC Duration : 1h 51mn Bit rate : 2 357 Kbps Width : 1 280 pixels Height : 688 pixels Display aspect ratio : 1.860 Frame rate : 23.976 fps Color space : YUV Chroma subsampling : 4:2:0 Bit depth : 8 bits Scan type : Progressive Bits/(Pixel*Frame) : 0.112 Stream size : 1.79 GiB (82%) Writing library : x264 core 116 r2074 2641b9e Encoding settings : cabac=1 / ref=5 / deblock=1:-1:-1 / analyse=0x3:0x113 / me=umh / subme=6 / psy=1 / psy_rd=1.00:0.00 / mixed_ref=1 / me_range=16 / chroma_me=1 / trellis=2 / 8x8dct=1 / cqm=0 / deadzone=21,11 / fast_pskip=1 / chroma_qp_offset=-2 / threads=12 / sliced_threads=0 / nr=0 / decimate=1 / interlaced=0 / bluray_compat=0 / constrained_intra=0 / bframes=3 / b_pyramid=0 / b_adapt=1 / b_bias=0 / direct=3 / weightb=1 / open_gop=0 / weightp=2 / keyint=250 / keyint_min=23 / scenecut=40 / intra_refresh=0 / rc_lookahead=40 / rc=2pass / mbtree=1 / bitrate=2357 / ratetol=1.0 / qcomp=0.60 / qpmin=10 / qpmax=51 / qpstep=4 / cplxblur=20.0 / qblur=0.5 / vbv_maxrate=50000 / vbv_bufsize=50000 / nal_hrd=none / ip_ratio=1.40 / aq=1:1.00 Audio #2 ID : 2 Format : AC-3 Format/Info : Audio Coding 3 Mode extension : CM (complete main) Codec ID : A_AC3 Duration : 1h 51mn Bit rate mode : Constant Bit rate : 448 Kbps Channel(s) : 6 channels Channel positions : Front: L C R, Side: L R, LFE Sampling rate : 48.0 KHz Bit depth : 16 bits Compression mode : Lossy Stream size : 357 MiB (16%) Title : 日语 Text #3 ID : 3 Format : UTF-8 Codec ID : S_TEXT/UTF8 Codec ID/Info : UTF-8 Plain Text
pdf.worthsee.com PDF合并 PDF选页 PDF提取图片 PDF转HTML PDF分成单页 PDF提取文字