飞鸟娱乐[bbs.hdbird.com].异形大战忍者.720p.日语中字

Torrent Base Info

Title:
飞鸟娱乐[bbs.hdbird.com].异形大战忍者.720p.日语中字
Total size:
2.05 GB
Create Time:
2011-12-27 06:45:45
Total Files:
9

Guess You Like

Files in this torrent

  • 飞鸟娱乐[bbs.hdbird.com].异形大战忍者.720p.日语中字.torrent
  • 飞鸟娱乐[bbs.hdbird.com].异形大战忍者.720p.日语中字
    • [email protected]飞鸟娱乐.txt (1.27 KB)
    • 飞鸟网-和浪子一起来开心农场偷菜吧.url (281 B)
    • 飞鸟娱乐-边看电影边学英语,娱乐学习两不误.url (272 B)
    • 飞鸟娱乐网址更新器.rar (114 KB)
    • 老调网-下载中英字幕电影的好地方.url (272 B)
    • 异形大战忍者 Alien.Vs.Ninja.2010.BluRay.720p.x264.AC3-WOFEI.jpg (255 KB)
    • 异形大战忍者 Alien.Vs.Ninja.2010.BluRay.720p.x264.AC3-WOFEI.mkv (2.05 GB)
    • 异形对忍者.jpg (279 KB)
    • 异形对忍者.txt (3.33 KB)

Torrent Recommendation

1.96 GB
2016-09-25 20:58:09
907 MB
2016-11-26 08:55:48
2.85 GB
2015-07-16 23:26:31
781 MB
2017-04-12 00:51:28
4.81 GB
2015-09-29 09:23:53
1.29 GB
2012-12-05 12:25:25
1.27 GB
2014-08-08 05:04:20
2.7 GB
2013-05-29 07:49:02
1.11 GB
2013-10-13 05:15:18
4.11 GB
2010-04-02 13:36:58
1.43 GB
2016-01-13 16:12:36
1.86 GB
2016-06-24 04:20:15
1.34 GB
2012-12-17 13:54:14
2.85 GB
2014-11-05 02:18:25
1.19 GB
2016-02-03 12:41:59
647 MB
2014-10-13 08:41:15
6.58 GB
2016-03-22 18:46:27
1.56 GB
2016-10-19 03:01:03

Torrent Description

Names
Alien VS Ninja/异形对忍者/中文
Caption
异形大战忍者 Alien.Vs.Ninja.2010.BluRay.720p.x264.AC3-WOFEI 日语中字
Year
2010
Nation
日本
Category
动作/喜剧/奇幻
Language
日语
Director
千叶诚治 Seiji Chiba
Starring
Mika Hijii/柏原收史 Shuuji Kashiwabara/樋浦勉 Ben Hiura/Y?ki Ogoe/Donbei Tsuchihira/三元雅艺 Masanori Mimoto
由一个名为忍者率领的忍者战士,见证了一个火球从太空坠落,战士们准备寻找真相。 I:\rmvb资源\[高清MKV收藏 www.hdbird.com ]\飞鸟娱乐[bbs.hdbird.com].异形大战忍者.720p.日语中字\异形大战忍者 Alien.Vs.Ninja.2010.BluRay.720p.x264.AC3-WOFEI.mkv General Complete name : I:\rmvb资源\[高清MKV收藏 www.hdbird.com ]\飞鸟娱乐[bbs.hdbird.com].异形大战忍者.720p.日语中字\异形大战忍者 Alien.Vs.Ninja.2010.BluRay.720p.x264.AC3-WOFEI.mkv Format : Matroska File size : 2.05 GiB Duration : 1h 21mn Overall bit rate : 3 621 Kbps Encoded date : UTC 2011-12-27 06:12:56 Writing application : mkvmerge v3.4.0 ('Rapunzel') 编译于 May 15 2010 09:38:20 Writing library : libebml v0.8.0 + libmatroska v0.9.0 Video #1 ID : 1 Format : AVC Format/Info : Advanced Video Codec Format profile : [email protected] Format settings, CABAC : Yes Format settings, ReFrames : 4 frames Muxing mode : Container [email protected] Codec ID : V_MPEG4/ISO/AVC Duration : 1h 20mn Bit rate : 3 101 Kbps Nominal bit rate : 3 172 Kbps Width : 1 280 pixels Height : 720 pixels Display aspect ratio : 16:9 Frame rate : 29.970 fps Resolution : 8 bits Colorimetry : 4:2:0 Scan type : Progressive Bits/(Pixel*Frame) : 0.112 Stream size : 1.75 GiB (86%) Writing library : x264 core 115 r1995 c1e60b9 Encoding settings : cabac=1 / ref=3 / deblock=1:0:0 / analyse=0x3:0x113 / me=hex / subme=7 / psy=1 / psy_rd=1.00:0.00 / mixed_ref=1 / me_range=16 / chroma_me=1 / trellis=1 / 8x8dct=1 / cqm=0 / deadzone=21,11 / fast_pskip=1 / chroma_qp_offset=-2 / threads=6 / sliced_threads=0 / nr=0 / decimate=1 / interlaced=0 / bluray_compat=0 / constrained_intra=0 / bframes=3 / b_pyramid=2 / b_adapt=1 / b_bias=0 / direct=1 / weightb=1 / open_gop=0 / weightp=2 / keyint=250 / keyint_min=25 / scenecut=40 / intra_refresh=0 / rc_lookahead=40 / rc=2pass / mbtree=1 / bitrate=3172 / ratetol=1.0 / qcomp=0.60 / qpmin=0 / qpmax=69 / qpstep=4 / cplxblur=20.0 / qblur=0.5 / vbv_maxrate=50000 / vbv_bufsize=50000 / nal_hrd=none / ip_ratio=1.40 / aq=1:1.00 Language : English Audio #2 ID : 2 Format : AC-3 Format/Info : Audio Coding 3 Codec ID : A_AC3 Duration : 1h 21mn Bit rate mode : Constant Bit rate : 448 Kbps Channel(s) : 6 channels Channel positions : Front: L C R, Surround: L R, LFE Sampling rate : 48.0 KHz Stream size : 260 MiB (12%) Text #3 ID : 3 Format : UTF-8 Codec ID : S_TEXT/UTF8 Codec ID/Info : UTF-8 Plain Text
pdf.worthsee.com PDF合并 PDF选页 PDF提取图片 PDF转HTML PDF分成单页 PDF提取文字