飞鸟娱乐[bbs.hdbird.com].达格南制造.720p.中英字幕

Torrent Base Info

Title:
飞鸟娱乐[bbs.hdbird.com].达格南制造.720p.中英字幕
Total size:
2.05 GB
Create Time:
2011-03-23 06:24:17
Total Files:
9

Guess You Like

Files in this torrent

  • 飞鸟娱乐[bbs.hdbird.com].达格南制造.720p.中英字幕.torrent
  • 飞鸟娱乐[bbs.hdbird.com].达格南制造.720p.中英字幕
    • [email protected]飞鸟娱乐.txt (1.27 KB)
    • 达格南制造 Made.In.Dagenham.2010.BluRay.720p.x264.AC3-WOFEI.jpg (229 KB)
    • 达格南制造 Made.In.Dagenham.2010.BluRay.720p.x264.AC3-WOFEI.mkv (2.05 GB)
    • 达格南制造.jpg (53.3 KB)
    • 达格南制造.txt (6.26 KB)
    • 飞鸟网-和浪子一起来开心农场偷菜吧.url (281 B)
    • 飞鸟娱乐-边看电影边学英语,娱乐学习两不误.url (272 B)
    • 飞鸟娱乐网址更新器.rar (123 KB)
    • 小浪影视-下载中英字幕电影的好地方.url (270 B)

Torrent Recommendation

1015 MB
2014-12-09 08:00:00
4.19 GB
2017-04-13 14:47:22
1.1 GB
2016-02-28 11:21:36
1.89 GB
2016-02-25 03:34:52
1.63 GB
2014-08-10 06:28:41
4.37 GB
2015-02-20 06:24:24
2.7 GB
2016-04-11 06:12:10
1.36 GB
2016-03-19 12:03:41
2.83 GB
2017-04-30 14:54:07
1.32 GB
2014-02-13 11:09:22
4.32 GB
2017-04-19 22:54:41
3.53 GB
2015-04-04 07:51:05
426 MB
2014-02-28 06:46:03
2.54 GB
2013-02-19 13:13:51
4.43 GB
2015-01-27 10:13:50
3.39 GB
2013-05-29 16:43:11
2.73 GB
2014-05-09 07:26:25
1.33 GB
2016-07-12 14:15:01
1.92 GB
2016-04-15 09:41:31

Torrent Description

Names
Made in Dagenham/达格南制造/达格纳姆制造/我们需要性/中英字幕/中文字幕/英中字幕/英文字幕
Caption
【飞鸟影视BT组】达格南制造/我们需要性 Made.In.Dagenham.2010.BluRay.720p.x264.AC3-WOFEI 中英字幕
Year
2010
Nation
英国
Category
喜剧/剧情/历史
Language
英语
File Format
X264 + AC3
Video Size
1280 x 720
File Size
1CD 2.05G
Director
尼杰尔·科尔 Nigel Cole
Starring
罗莎曼德·派克 Rosamund Pike...Lisa/米兰达·理查森 Miranda Richardson...Barbara Castle/莎莉·霍金斯 Sally Hawkins...Rita/鲍勃·霍斯金斯 Bob Hoskins...Albert/杰美·温斯顿 Jaime Winstone...Sandra/拉珀特·格雷夫斯 Rupert Graves/理查德·希夫 Richard Schiff...Tooley/杰拉丁尼·詹姆斯 Geraldine James...Connie/罗比·凯 Robbie Kay...Graham/丹尼尔·梅斯 Daniel Mays...Eddie/马特·金 Matt King...Trevor Innes/约瑟夫·马勒 Joseph Mawle...Gordon/安德丽亚·瑞斯波罗格 Andrea Riseborough...Brenda/Kenneth Cranham...Hopkins/Roger Lloyd-Pack...George/Sian Scott...Sharron/约翰·塞森斯 John Sessions...Harold Wilson/Angus Barnett...Blue Van Man/Stephanie Carswell...(as Stéphanie May Carswell)/Marysia K....River Plant Worker/Johnny Lynch...Reporter #2/Annika Hammerton...Sandra's Friend/劳瑞恩·斯坦利 Lorraine Stanley...Monica/Lee Nicholas Harris...Cameraman / Reporter/Nicola Duffett...Eileen/Gina Bramhill...Hopkin's Secretary/卡拉·巴姆福德 Cara Bamford...Sandra's Friend/Marcus Hutton...Grant/Tom Clear...Ford Factory Worker/Simone Liebman...Mother/Alex Moore...Fridge Mover/Gary Swan...Cameraman / Reporter/Ben Morris...Reporter #1/Mitchell Mullen...Kronnfeld/Rose Romain...Posy - River Plant Worker/Rich Keeble...West Ham Supporter/Jarrad Owens...Trevor's Assistant/Connor Slaney...Funeral family member/Lee Harris...Cameraman / Reporter/Ronald Fernee...Jeb Hardey/Jeanie Gold...Passer by (uncredited)/Bill Hickey...Party Guest / Union Rep (uncredited)/Mick Slaney...Funeral family member (uncredited)
这部影片讲述的是1968年,850名英国福特汽车公司位于戴根纳姆(Dagenham)的工厂女工走上街头罢工抗议工作待遇的性别歧视。这场罢工很快席卷全英国,最终帮助实现了英国女性和男性员工的同工同酬。 抗议期间,罢工代表曾被当时英国ZF的就业大臣芭芭拉·卡素尔(Barbara Castle)邀请一同喝茶,正是在这次会面中,罢工工人第一次提出男女同工同酬的问题 I:\rmvb资源\[高清MKV收藏 www.hdbird.com ]\飞鸟娱乐[bbs.hdbird.com].达格南制造.720p.中英字幕\达格南制造 Made.In.Dagenham.2010.BluRay.720p.x264.AC3-WOFEI.mkv General Complete name : I:\rmvb资源\[高清MKV收藏 www.hdbird.com ]\飞鸟娱乐[bbs.hdbird.com].达格南制造.720p.中英字幕\达格南制造 Made.In.Dagenham.2010.BluRay.720p.x264.AC3-WOFEI.mkv Format : Matroska File size : 2.05 GiB Duration : 1h 53mn Overall bit rate : 2 596 Kbps Encoded date : UTC 2011-03-22 15:57:19 Writing application : mkvmerge v3.4.0 ('Rapunzel') 编译于 May 15 2010 09:38:20 Writing library : libebml v0.8.0 + libmatroska v0.9.0 Video #1 ID : 1 Format : AVC Format/Info : Advanced Video Codec Format profile : [email protected] Format settings, CABAC : Yes Format settings, ReFrames : 4 frames Muxing mode : Container [email protected] Codec ID : V_MPEG4/ISO/AVC Duration : 1h 53mn Bit rate : 2 096 Kbps Nominal bit rate : 2 146 Kbps Width : 1 280 pixels Height : 720 pixels Display aspect ratio : 16:9 Frame rate : 23.976 fps Resolution : 8 bits Colorimetry : 4:2:0 Scan type : Progressive Bits/(Pixel*Frame) : 0.095 Stream size : 1.65 GiB (81%) Writing library : x264 core 114 r1913 5fd3dce Encoding settings : cabac=1 / ref=3 / deblock=1:0:0 / analyse=0x3:0x113 / me=hex / subme=7 / psy=1 / psy_rd=1.00:0.00 / mixed_ref=1 / me_range=16 / chroma_me=1 / trellis=1 / 8x8dct=1 / cqm=0 / deadzone=21,11 / fast_pskip=1 / chroma_qp_offset=-2 / threads=6 / sliced_threads=0 / nr=0 / decimate=1 / interlaced=0 / constrained_intra=0 / bframes=3 / b_pyramid=2 / b_adapt=1 / b_bias=0 / direct=1 / weightb=1 / open_gop=0 / weightp=2 / keyint=250 / keyint_min=23 / scenecut=40 / intra_refresh=0 / rc_lookahead=40 / rc=2pass / mbtree=1 / bitrate=2146 / ratetol=1.0 / qcomp=0.60 / qpmin=0 / qpmax=69 / qpstep=4 / cplxblur=20.0 / qblur=0.5 / vbv_maxrate=50000 / vbv_bufsize=50000 / nal_hrd=none / ip_ratio=1.40 / aq=1:1.00 Language : English Audio #2 ID : 2 Format : AC-3 Format/Info : Audio Coding 3 Codec ID : A_AC3 Duration : 1h 53mn Bit rate mode : Constant Bit rate : 448 Kbps Channel(s) : 6 channels Channel positions : Front: L C R, Surround: L R, LFE Sampling rate : 48.0 KHz Stream size : 363 MiB (17%) Text #3 ID : 3 Format : SSA Codec ID : S_TEXT/SSA Codec ID/Info : Sub Station Alpha Title : 中英 Text #4 ID : 4 Format : SSA Codec ID : S_TEXT/SSA Codec ID/Info : Sub Station Alpha Title : 英中 Text #5 ID : 5 Format : UTF-8 Codec ID : S_TEXT/UTF8 Codec ID/Info : UTF-8 Plain Text Title : 中文 Text #6 ID : 6 Format : UTF-8 Codec ID : S_TEXT/UTF8 Codec ID/Info : UTF-8 Plain Text Title : 英文
convert.freelrc.com 云音乐格式在线转换 QMC转MP3 QMC0转MP3 QMC3转MP3 QMCOGG转OGG QMCFLAC转FLAC NCM转MP3