Parallels.2015.720p.WEB-DL.XviD.AC3-RARBG

Torrent Base Info

Title:
Parallels.2015.720p.WEB-DL.XviD.AC3-RARBG
Total size:
2.06 GB
Create Time:
2015-05-19 07:48:09
Total Files:
5

Guess You Like

Files in this torrent

  • Parallels.2015.720p.WEB-DL.XviD.AC3-RARBG.torrent
  • Parallels.2015.720p.WEB-DL.XviD.AC3-RARBG
    • English.srt (90.8 KB)
    • Parallels.2015.720p.WEB-DL.XviD.AC3-RARBG.avi (2.06 GB)
    • Parallels.2015.720p.WEB-DL.XviD.AC3-RARBG.nfo (2.9 KB)
    • RARBG.com.avi (1.14 MB)
    • RARBG.com.txt (34 B)

Torrent Recommendation

2.02 GB
2017-03-07 09:00:56
1.21 GB
2015-11-15 05:08:44
872 MB
2016-09-20 13:27:40
2.5 GB
2014-05-10 07:16:58
2.66 GB
2015-10-28 09:32:58
950 MB
2015-04-10 07:26:46
1.16 GB
2013-12-23 09:30:08
1002 MB
2013-01-09 16:04:07
1.43 GB
2013-05-18 11:59:27
3.9 GB
2016-05-25 15:26:27
1.48 GB
2015-03-18 21:51:50
3.54 GB
2016-04-15 01:42:58
1.14 GB
2015-04-30 01:52:31
1 GB
2015-04-03 12:36:22
578 MB
2013-09-08 08:21:53
4.62 GB
2017-01-12 15:40:03
3.66 GB
2017-06-13 22:48:53
1.15 GB
2015-01-30 08:20:32
1.56 GB
2015-10-15 05:01:45

Torrent Description

Movie
Parallels
Detected quality
720p
Genre
Action
Director
Christopher Leone
Language
English
Title
Parallels 2015 720p WEB-DL XviD AC3-RARBG
UpNum
+61
DownNum
0
Category
Movies
Parallels 2015 720p WEB-DL XviD AC3-RARBG

Screens:

image
image
image
image
image
image

MediaInfo



Format : AVI
Format/Info : Audio Video Interleave
Format profile : OpenDML
File size : 2.06 GiB
Duration : 1h 23mn
Overall bit rate : 3 526 Kbps
Movie name : RARBG.COM - Parallels.2015.720p.WEB-DL.XviD.AC3-RARBG
Writing library : VirtualDub build 35491/release
Comment : RARBG.COM - Parallels.2015.720p.WEB-DL.XviD.AC3-RARBG

Video
ID : 0
Format : MPEG-4 Visual
Format profile : [email protected]
Format settings, BVOP : No
Format settings, QPel : No
Format settings, GMC : No warppoints
Format settings, Matrix : Default (H.263)
Codec ID : XVID
Codec ID/Hint : XviD
Duration : 1h 23mn
Bit rate : 3 130 Kbps
Width : 1 280 pixels
Height : 720 pixels
Display aspect ratio : 16:9
Frame rate : 23.976 fps
Color space : YUV
Chroma subsampling : 4:2:0
Bit depth : 8 bits
Scan type : Progressive
Compression mode : Lossy
Bits/(Pixel*Frame) : 0.142
Stream size : 1.83 GiB (89%)
Writing library : Lavc56.13.100

Audio
ID : 1
Format : AC-3
Format/Info : Audio Coding 3
Mode extension : CM (complete main)
Format settings, Endianness : Big
Codec ID : 2000
Duration : 1h 23mn
Bit rate mode : Constant
Bit rate : 384 Kbps
Channel(s) : 6 channels
Channel positions : Front: L C R, Side: L R, LFE
Sampling rate : 48.0 KHz
Bit depth : 16 bits
Compression mode : Lossy
Stream size : 230 MiB (11%)
Alignment : Aligned on interleaves
Interleave, duration : 42 ms (1.00 video frame)
Interleave, preload duration : 512 ms






Notes:
Greetz to all!

Torrent Description

Names
parallels/平行宇宙
Caption
[720P][05-27] 平行宇宙 Parallels.2015.720p.WEB-DL.XviD.AC3-RARBG 简繁字幕
Year
2015
Release Date
2015-03-01
Nation
美国
Category
科幻
Language
英语
Director
Christopher Leone
Starring
Mark Hapka/杰西卡・罗德 Jessica Rothe/Eric Jungmann/康斯坦斯・吴 Constance Wu/Yorgo Constantine/戴维・杰 Davi Jay/Michael Monks/Ian Casselberry/B.J. Grogan/Lorraine LeBlanc/Han Soto/马科・圣约翰 Marco St. John/Luke Hawx/Kim Collins/Lindsey G. Smith
【平行宇宙】这片子原是Fox拍摄的一部美剧的试播集,但FOX最终决定将其拍摄为为一部80分钟的电影在netflix上首映。作为电影可能挖了太多天坑,但一个男人通过一座神秘建筑进入无限的平行宇宙,遇到无限个的自己的故事很绝。 MediaInfo Format : AVI Format/Info : Audio Video Interleave Format profile : OpenDML File size : 2.06 GiB Duration : 1h 23mn Overall bit rate : 3 526 Kbps Movie name : RARBG.COM - Parallels.2015.720p.WEB-DL.XviD.AC3-RARBG Writing library : VirtualDub build 35491/release Comment : RARBG.COM - Parallels.2015.720p.WEB-DL.XviD.AC3-RARBG Video ID : 0 Format : MPEG-4 Visual Format profile : SimpleL5 Format settings, BVOP : No Format settings, QPel : No Format settings, GMC : No warppoints Format settings, Matrix : Default (H.263) Codec ID : XVID Codec ID/Hint : XviD Duration : 1h 23mn Bit rate : 3 130 Kbps Width : 1 280 pixels Height : 720 pixels Display aspect ratio : 16:9 Frame rate : 23.976 fps Color space : YUV Chroma subsampling : 4:2:0 Bit depth : 8 bits Scan type : Progressive Compression mode : Lossy Bits/(Pixel*Frame) : 0.142 Stream size : 1.83 GiB (89%) Writing library : Lavc56.13.100 Audio ID : 1 Format : AC-3 Format/Info : Audio Coding 3 Mode extension : CM (complete main) Format settings, Endianness : Big Codec ID : 2000 Duration : 1h 23mn Bit rate mode : Constant Bit rate : 384 Kbps Channel(s) : 6 channels Channel positions : Front: L C R, Side: L R, LFE Sampling rate : 48.0 KHz Bit depth : 16 bits Compression mode : Lossy Stream size : 230 MiB (11%) Alignment : Aligned on interleaves Interleave, duration : 42 ms (1.00 video frame) Interleave, preload duration : 512 ms Notes: Greetz to all!
NCM格式转换为MP3格式