The.Second.Best.Exotic.Marigold.Hotel.2015.1080p.BluRay.x264-GECKOS[rarbg]

Torrent Base Info

Title:
The.Second.Best.Exotic.Marigold.Hotel.2015.1080p.BluRay.x264-GECKOS[rarbg]
Total size:
8.75 GB
Create Time:
2015-06-22 05:04:04
Total Files:
6

Guess You Like

Files in this torrent

  • The.Second.Best.Exotic.Marigold.Hotel.2015.1080p.BluRay.x264-GECKOS[rarbg].torrent
  • The.Second.Best.Exotic.Marigold.Hotel.2015.1080p.BluRay.x264-GECKOS[rarbg]
    • RARBG.com.txt (34 B)
    • Subs
      • The.Second.Best.Exotic.Marigold.Hotel.2015.1080p.BluRay.x264-GECKOS.idx (84.3 KB)
      • The.Second.Best.Exotic.Marigold.Hotel.2015.1080p.BluRay.x264-GECKOS.sub (12.8 MB)
    • The.Second.Best.Exotic.Marigold.Hotel.2015.1080p.BluRay.x264-GECKOS.mkv (8.74 GB)
    • the.second.best.exotic.marigold.hotel.2015.1080p.bluray.x264-geckos.jpg (6.79 KB)
    • the.second.best.exotic.marigold.hotel.2015.1080p.bluray.x264-geckos.nfo (3.28 KB)

Torrent Recommendation

1.36 GB
2015-11-07 09:05:50
593 MB
2007-08-13 02:36:27
2.64 GB
2015-08-31 10:32:07
2.94 GB
2016-03-23 11:02:22
375 MB
2009-05-20 07:13:33
1.36 GB
2014-12-05 14:51:42
1.8 GB
2016-06-30 08:16:15
2.05 GB
2010-06-16 15:23:09
403 MB
2013-12-03 16:05:02
997 MB
2015-06-18 15:12:06
900 MB
2016-10-19 16:19:02
1.31 GB
2014-03-24 13:06:00
2.1 GB
2015-10-14 23:26:50
1.8 GB
2016-09-19 09:35:04
809 MB
2014-01-08 08:36:18
2.18 GB
2016-05-13 06:28:55
4.41 GB
2016-09-19 14:54:58
3.01 GB
2016-03-08 08:29:45

Torrent Description

Movie
The Second Best Exotic Marigold Hotel
Detected quality
1080p
Genres
Drama
Director
John Madden
Language
English
Subtitles
English
Title
The Second Best Exotic Marigold Hotel 2015 1080p BluRay x264-GECKOS[rarbg]
UpNum
+43
DownNum
0
Category
Movies > Highres Movies
image

MediaInfo

Video
ID : 1
Format : AVC
Format/Info : Advanced Video Codec
Format profile : [email protected]
Format settings, CABAC : Yes
Format settings, ReFrames : 5 frames
Codec ID : V_MPEG4/ISO/AVC
Duration : 2h 2mn
Bit rate : 8 692 Kbps
Width : 1 920 pixels
Height : 808 pixels
Display aspect ratio : 2.40:1
Frame rate mode : Constant
Frame rate : 23.976 fps
Color space : YUV
Chroma subsampling : 4:2:0
Bit depth : 8 bits
Scan type : Progressive
Bits/(Pixel*Frame) : 0.234
Stream size : 7.27 GiB (83%)
Writing library : x264 core 146 r2538 121396c
Encoding settings : cabac=1 / ref=5 / deblock=1:0:0 / analyse=0x3:0x133 / me=umh / subme=7 / psy=1 / psy_rd=1.00:0.00 / mixed_ref=1 / me_range=16 / chroma_me=1 / trellis=1 / 8x8dct=1 / cqm=0 / deadzone=21,11 / fast_pskip=0 / chroma_qp_offset=-2 / threads=18 / lookahead_threads=3 / sliced_threads=0 / nr=0 / decimate=1 / interlaced=0 / bluray_compat=0 / constrained_intra=0 / bframes=3 / b_pyramid=2 / b_adapt=1 / b_bias=0 / direct=1 / weightb=1 / open_gop=0 / weightp=2 / keyint=250 / keyint_min=23 / scenecut=40 / intra_refresh=0 / rc_lookahead=40 / rc=2pass / mbtree=1 / bitrate=8692 / ratetol=1.0 / qcomp=0.60 / qpmin=0 / qpmax=69 / qpstep=4 / cplxblur=20.0 / qblur=0.5 / ip_ratio=1.40 / aq=1:1.00
Language : English
Default : Yes
Forced : No

Audio
ID : 2
Format : DTS
Format/Info : Digital Theater Systems
Mode : 16
Format settings, Endianness : Big
Codec ID : A_DTS
Duration : 2h 2mn
Bit rate mode : Constant
Bit rate : 1 509 Kbps
Channel(s) : 6 channels
Channel positions : Front: L C R, Side: L R, LFE
Sampling rate : 48.0 KHz
Bit depth : 24 bits
Compression mode : Lossy
Stream size : 1.29 GiB (15%)
Language : English
Default : Yes
Forced : No

Text
ID : 3
Format : UTF-8
Codec ID : S_TEXT/UTF8
Codec ID/Info : UTF-8 Plain Text
Title : English-Forced
Language : English
Default : Yes
Forced : Yes

Menu
00:00:00.000 : en:00:00:00.000
00:04:14.337 : en:00:04:14.337
00:09:35.867 : en:00:09:35.867
00:15:14.956 : en:00:15:14.956
00:19:20.659 : en:00:19:20.659
00:23:01.797 : en:00:23:01.797
00:28:20.032 : en:00:28:20.032
00:32:28.697 : en:00:32:28.697
00:36:00.784 : en:00:36:00.784
00:39:55.101 : en:00:39:55.101
00:44:39.093 : en:00:44:39.093
00:49:53.407 : en:00:49:53.407
00:53:55.732 : en:00:53:55.732
00:58:33.635 : en:00:58:33.635
01:02:55.271 : en:01:02:55.271
01:05:19.207 : en:01:05:19.207
01:10:42.488 : en:01:10:42.488
01:14:29.882 : en:01:14:29.882
01:17:48.372 : en:01:17:48.372
01:21:25.172 : en:01:21:25.172
01:26:55.627 : en:01:26:55.627
01:30:52.197 : en:01:30:52.197
01:35:17.670 : en:01:35:17.670
01:38:34.742 : en:01:38:34.742
01:44:33.976 : en:01:44:33.976
01:47:40.120 : en:01:47:40.120
01:52:02.925 : en:01:52:02.925
01:56:27.981 : en:01:56:27.981

Torrent Description

Names
The Second Best Exotic Marigold Hotel/涉外大饭店2/最好的玛丽戈德涉外饭店2/最好的万寿菊涉外酒店2/第二好的玛丽戈德涉外饭店/第二好的万寿菊涉外酒店/黄金花第2大酒店(港)/金花大酒店2(台)
Caption
[1080P][06-22] 涉外大饭店2/黄金花第2大酒店(港)/金花大酒店2(台) The.Second.Best.Exotic.Marigold.Hotel.2015.1080p.BluRay.
Year
2015
Nation
英国/美国
Category
喜剧/剧情
Language
英语字 幕
File Format
X264 + DTS
File Size
1CD 8.75 GiB
Director
约翰・麦登 John Madden
Starring
戴夫・帕特尔 Dev Patel ...Sonny Kapoor/玛吉・史密斯 Maggie Smith ...Muriel Donnelly/Danny Mahoney ...Car Valet/David Strathairn ...Ty Burley/Judi Dench ...Evelyn Greenslade/Bill Nighy ...Douglas Ainslie/Celia Imrie ...Madge Hardcastle/Ronald Pickup ...Norman Cousins/Diana Hardcastle ...Carol Parr/Subhrajyoti Barat ...Hari/Fiona Mollison ...Susan/Zachary Coffin ...American Tourist/Jayesh V. Kardak ...Douglas' Assistant/Tina Desai ...Sunaina/Shazad Latif ...Kushal
金盏花大酒店已住满了长期房客,联合经理穆瑞尔(玛吉・史密斯 Maggie Smith 饰)和桑尼(戴夫・帕特尔 Dev Patel 饰)梦想扩大经营,而他们正好找到了一个地点――“玛丽戈德饭店”。随着计划进行,伊芙琳(朱迪・丹奇 Judi Dench 饰)和道格拉斯(比尔・奈伊 Bill Nighy 饰)进入斋浦尔的职场中探索,摸索着他们的早餐约会将有何进展。 同时,诺曼(罗纳德・皮卡普 Ronald Pickup 饰)与卡萝(黛安娜・哈卡索 Diana Hardcastle 饰)在他们交往关系的漩涡中寻找方向,而玛琪(西莉亚・伊姆里 Celia Imrie 饰)面临两位“优质”黄金单身汉的追求,新房客盖钱伯斯(理查・基尔 Richard Gere 饰)则在桑尼的母亲卡普尔太太(莉蕾特・杜贝 Lillete Dubey 饰)身上,找到他下一本小说的灵感。当桑尼与真命天女苏奈娜(蒂娜・德赛 Tina Desai 饰)的婚礼逐步逼近时,寻找新酒店的计划更占据了他所能投入的时间,也许唯一知道答案的人是穆瑞尔,她保守着每个人的秘密。随着大喜之日接近,家人和宾客很可能会深陷印度婚礼无法抗拒的魅力中而无法自拔……
NCM格式转换为MP3格式