飞鸟娱乐(bbs.wofei.net).迈克尔·杰克逊:就是这样.720P.中英字幕

Torrent Base Info

Title:
飞鸟娱乐(bbs.wofei.net).迈克尔·杰克逊:就是这样.720P.中英字幕
Total size:
2.05 GB
Create Time:
2009-12-27 05:04:47
Total Files:
10

Guess You Like

Files in this torrent

  • 飞鸟娱乐(bbs.wofei.net).迈克尔·杰克逊:就是这样.720P.中英字幕.torrent
  • 飞鸟娱乐(bbs.wofei.net).迈克尔·杰克逊:就是这样.720P.中英字幕
    • [email protected]飞鸟娱乐.txt (1.06 KB)
    • 飞鸟网-和浪子一起来开心农场偷菜吧.url (305 B)
    • 飞鸟娱乐(bbs.wofei.net).迈克尔·杰克逊:就是这样.720P.中英字幕.jpg (115 KB)
    • 飞鸟娱乐(bbs.wofei.net).迈克尔·杰克逊:就是这样.720P.中英字幕.txt (9.34 KB)
    • 飞鸟娱乐-边看电影边学英语,娱乐学习两不误.url (271 B)
    • 飞鸟娱乐主页-下载免费电影的绝佳选择!.htm (5.99 KB)
    • 和漂亮美眉亲密接触.url (272 B)
    • 迈克尔·杰克逊:就是这样 This.Is.It.2009.BluRay.720p.x264.AC3-WOFEI.jpg (274 KB)
    • 迈克尔·杰克逊:就是这样 This.Is.It.2009.BluRay.720p.x264.AC3-WOFEI.mkv (2.05 GB)
    • 小浪影视-下载中英字幕电影的好地方.url (270 B)

Torrent Recommendation

2.37 GB
2013-02-07 05:41:14
2.63 GB
2014-10-10 13:43:04
2 GB
2016-03-09 10:24:01
995 MB
2010-05-16 15:53:31
3.37 GB
2016-05-07 02:07:01
6.99 GB
2015-11-15 16:21:04
2.98 GB
2016-06-17 08:36:43
3.88 GB
2016-09-11 08:57:56
1.2 GB
None
1.34 GB
2016-06-19 02:15:38
655 MB
2008-04-25 03:44:11
886 MB
2016-09-21 21:36:07
1.07 GB
2014-12-06 14:22:10
3 GB
2015-10-05 08:27:22
1.6 GB
2013-10-18 10:43:05
981 MB
2015-05-03 03:59:56
3.67 GB
2016-09-23 11:37:10
863 MB
2014-03-09 04:15:43
951 MB
2014-09-18 08:19:36

Torrent Description

Names
This Is It/迈克尔·杰克逊:就是这样/天王终点/这就是了/麦可杰克逊:未来的未来演唱会电影/中英字幕/中文字幕/英中字幕/英文字幕
Caption
【飞鸟影视BT组】迈克尔·杰克逊:就是这样 This.Is.It.2009.BluRay.720p.x264.AC3-WOFEI 中英字幕
Year
2009
Nation
美国
Category
记录/音乐
Language
英语
File Format
X264 + AC3
Video Size
1280 x 720
File Size
1CD
Director
肯尼·奥特加 Kenny Ortega
Starring
迈克尔·杰克逊 Michael Jackson ....Himself/奥里安斯 Orianthi ....Herself - Lead Guitar/肯尼·奥特加 Kenny Ortega ....Himself/Alex Al ....Himself / Electric and Synth Bass/Nick Bass ....Himself / Dancer/Michael Bearden ....Himself / Keyboards/Daniel Celebre ....Himself / Dancer/梅基亚·考克斯 Mekia Cox ....Herself / Dancer/Misha Gabriel ....Himself / Dancer/Chris Grant ....Himself / Dancer/朱迪丝·希尔 Judith Hill ....Herself / Vocalist/Dorian Holley ....Himself / Vocal Supervision/Shannon Holtzapffel ....Himself / Dancer/Devin Jamieson ....Himself / Dancer (as Devin Andrew Jamieson)/Bashiri Johnson ....Himself / Percussion/Charles Klapow ....Himself / Dancer/Jonathan Moffett ....Himself / Drums/Tommy Organ ....Himself / Guitar/戴瑞尔·芬尼斯 Darryl Phinnessee ....Himself / Vocalist/Mo Pleasure ....Himself / Keyboards / Trumpet/Dres Reid ....Himself / Dancer/Ken Stacey ....Himself / Vocalist/Tyne Stecklein ....Herself / Dancer/Timor Steffens ....Himself / Dancer
原本主办杰克逊告别演唱会的AEG Live公司,在他生前彩排时侧录数百小时的影片,经过精选剪辑,配上幕后花絮,完整呈现杰克逊生前对演唱会的选曲、舞蹈、舞台设计、编舞、音乐、灯光等每个环节事必躬亲参与并提供创意。 2009年6月25日,一位全球瞩目的流行音乐天王的生命仓促的画上了终点,而在这之前,这位天王刚刚准备举办他最后的演唱会。8.54亿张唱片的销量,证明了这位天王前无古人、后无来者的号召力,他就是--迈克尔·杰克逊。 2009年3月6日,其时的迈克尔·杰克逊在伦敦宣布将在这个夏天举行一场名为"This is it"的告别演唱会,随后他便开始为演唱会进行紧张的彩排工作。亲力亲为的他为演唱会的选曲、编排、舞蹈、灯光等各个环节把关,而整个过程,都被详实的记录下来。这部纪录片所讲述的,就是对这位流行音乐天王那场未来的未来演唱会,献上最后的缅怀…… 一句话评论 《就是这样》必将载入史册,因为它已经不单单是一部纪录片,它代表的是对几十年来流行文化的一个总结。 --《综艺》 一部让你泪流满面的伟大电影。 --shawnv.hostei.com 幕后制作 天王终点的记录者 2009年夏天娱乐界最震撼人的新闻,莫过于迈克尔·杰克逊的辞世。对于《就是这样》的导演肯尼·奥特加而言,他的心情相当复杂。本来他担任着迈克尔· 杰克逊告别演唱会的总导演,却因为天王的意外去世,而无奈地成为这部纪录片的导演。对于这部记录天王生前最后足迹的纪录片,肯尼·奥特加悲伤的说道:"这是一部不应该会是现在这样的纪录片……在演唱会筹备期间,迈克尔·杰克逊就已经想好,要为这次演唱会的整个过程逐一记录,因为当时迈克尔·杰克逊已经不再打算制作这么大的演唱会。那时候他对我说,'我太累了,我还有很多事情没有做,我想我在音乐上已经走到一个阶段,我需要把时间放在其他与音乐同样美好的事情上面。'所以我们最开始记录这场演唱会的制作过程,就是想为迈克尔·杰克逊最后一次在舞台上如此华丽的演出做一个完整的记录。而我的确没有想到,最后这部纪录片却取代了演唱会。" 对于迈克尔·杰克逊的歌迷而言,这次能在银幕上如此完整的见到自己的偶像,而且有着如此特别的意义,因此,《就是这样》的各方面都成为了焦点。担任导演一职的肯尼·奥特加自然显得责任重大:"迈克尔·杰克逊生前为演唱会的彩排而进行了好几个月,这些时间留下来的素材有上百个小时,我们首先要做的就是从中挑选最具代表性价值的内容,然后呈现给大家。挑选剪辑这些内容是一件非常困难的事情,我想把每个镜头都展现给大家看,但我知道这不可能,我必须要把几百个小时的东西浓缩在2个钟头以内。所以我们最终确定了,影片的主线还是以迈克尔·杰克逊生前那场未完成的演唱会为主,影片集中展现的,是迈克尔·杰克逊为这场演唱会而进行的种种事情。我希望这样会得到歌迷们的理解。" 全球歌迷的翘首以盼 影片自确定推出之时,就成为了传媒关注的焦点。肯尼·奥特加说:"这部电影的制作期非常紧迫,因为一开始我们所有的准备工作都是为了迈克尔??杰克逊的演唱会,不幸的事情突然发生以后,我们的工作完全打乱了。当时有许多个计划,甚至还有公司准备拍摄一部迈克尔·杰克逊的传记,但最后我们还是决定以演唱会为主,讲述他筹备整个演唱会的经过。起初他们想在杰克逊的生日,也就是8月29日推出影片。我说'这不可能',然后他们定在了万圣节档期,这个对我来说没问题。正好这也是迈克尔最喜欢的节日。" 对于这场未至的谢幕演出转变成一部在电影院上映纪录片,负责演唱会承办商AEG娱乐公司总裁兰迪·菲利普表示依然值得期待:"虽然对于大多数人而言,他们要看到的是在演唱会上的迈克尔??杰克逊,这个现在无法成为事实的确令人遗憾,但幸运的是我们尽可能的保留了他为这场演唱会所付出的心血的记录,这些内容同样值得他的歌迷去关注。这出演唱会对于迈克尔·杰克逊有着特别的意义,这是他最后一次花费这么多的精力去完成一次演唱会,而我们换个角度,可以从《就是这样》这部纪录片里了解到迈克尔·杰克逊如何制作这场演唱会,我们也能在纪录片里看到他为演唱会准备的舞蹈与歌声。这一切都说明了《就是这样》的珍贵价值。" 为流行天王正名 《就是这样》会否令迈克尔·杰克逊的歌迷满意,同时,它又会不会令评论界认为是一部纯粹赚取粉丝金钱的、不会成为一部合格的纪录片呢?针对这个问题,导演肯尼·奥特加专门说道:"许多人都对我说过类似的疑问,因为他们都很关心《就是这样》会做到一个什么样的级别。于我而言,《就是这样》很简单,它就是一部表现迈克尔·杰克逊如何认真拼命的为自己准备演唱会的纪录片,我在制作时的核心想法就是这样。但我知道还有更多不属于迈克尔·杰克逊粉丝的影迷会观看这部纪录片,因此,我必须要在纪录片里说明迈克尔·杰克逊究竟为何如此让人着迷?" "许多人对迈克尔·杰克逊存在着许多的误解,"肯尼·奥特加继续说,"在过去许多年里,大家看到了迈克尔·杰克逊的许多新闻,这里面有很多是媒体不负责任的报道,而迈克尔·杰克逊却从来没有认真的反驳过,《就是这样》还肩负着这样一个艰巨的任务,它必须为迈克尔·杰克逊正名,他是一位伟大的人物,理应获得人们的尊敬,而不是不负责任的非议。所以《就是这样》里会有一些段落,阐述迈克尔· 杰克逊在生活方面的点点滴滴,我相信看过这部电影的观众,都会对他有一个公正的判断。" D:\rmvb资源\[高清MKV收藏 www.wofei.net ]\飞鸟娱乐(bbs.wofei.net).迈克尔·杰克逊:就是这样.720P.中英字幕\迈克尔·杰克逊:就是这样 This.Is.It.2009.BluRay.720p.x264.AC3-WOFEI.mkv General Complete name : D:\rmvb资源\[高清MKV收藏 www.wofei.net ]\飞鸟娱乐(bbs.wofei.net).迈克尔·杰克逊:就是这样.720P.中英字幕\迈克尔·杰克逊:就是这样 This.Is.It.2009.BluRay.720p.x264.AC3-WOFEI.mkv Format : Matroska File size : 2.05 GiB Duration : 1h 51mn Overall bit rate : 2 639 Kbps Encoded date : UTC 2009-12-27 04:45:46 Writing application : mkvmerge v2.4.0 ('Fumbling Towards Ecstasy') built on Oct 11 2008 20:13:15 Writing library : libebml v0.7.7 + libmatroska v0.8.1 Video #1 ID : 1 Format : AVC Format/Info : Advanced Video Codec Format profile : [email protected] Format settings, CABAC : Yes Format settings, ReFrames : 4 frames Muxing mode : Container [email protected] Codec ID : V_MPEG4/ISO/AVC Duration : 1h 51mn Bit rate : 2 139 Kbps Nominal bit rate : 2 187 Kbps Width : 1 280 pixels Height : 720 pixels Display aspect ratio : 16:9 Frame rate : 23.976 fps Resolution : 8 bits Colorimetry : 4:2:0 Scan type : Progressive Bits/(Pixel*Frame) : 0.097 Stream size : 1.66 GiB (81%) Writing library : x264 core 68 r1183M f21daff Encoding settings : cabac=1 / ref=4 / deblock=1:-1:-1 / analyse=0x3:0x113 / me=umh / subme=7 / psy_rd=1.0:0.0 / mixed_ref=1 / me_range=16 / chroma_me=1 / trellis=2 / 8x8dct=1 / cqm=0 / deadzone=21,11 / chroma_qp_offset=-2 / threads=6 / nr=0 / decimate=1 / mbaff=0 / bframes=3 / b_pyramid=0 / b_adapt=1 / b_bias=0 / direct=3 / wpredb=1 / keyint=250 / keyint_min=25 / scenecut=40 / rc=2pass / bitrate=2187 / ratetol=1.0 / qcomp=0.60 / qpmin=10 / qpmax=51 / qpstep=4 / cplxblur=20.0 / qblur=0.5 / vbv_maxrate=50000 / vbv_bufsize=50000 / ip_ratio=1.40 / pb_ratio=1.30 / aq=1:1.00 Language : English Audio #2 ID : 2 Format : AC-3 Format/Info : Audio Coding 3 Codec ID : A_AC3 Duration : 1h 51mn Bit rate mode : Constant Bit rate : 448 Kbps Channel(s) : 6 channels Channel positions : Front: L C R, Surround: L R, LFE Sampling rate : 48.0 KHz Stream size : 357 MiB (17%) Title : 原声 Language : English Text #3 ID : 3 Format : SSA Codec ID : S_TEXT/SSA Codec ID/Info : Sub Station Alpha Title : 中英字幕 Text #4 ID : 4 Format : SSA Codec ID : S_TEXT/SSA Codec ID/Info : Sub Station Alpha Title : 英中字幕 Text #5 ID : 5 Format : SSA Codec ID : S_TEXT/SSA Codec ID/Info : Sub Station Alpha Title : 中文字幕 Text #6 ID : 6 Format : SSA Codec ID : S_TEXT/SSA Codec ID/Info : Sub Station Alpha Title : 英文字幕 Text #7 ID : 7 Format : UTF-8 Codec ID : S_TEXT/UTF8 Codec ID/Info : UTF-8 Plain Text Title : 中英字幕
convert.freelrc.com 云音乐格式在线转换 QMC转MP3 QMC0转MP3 QMC3转MP3 QMCOGG转OGG QMCFLAC转FLAC NCM转MP3