飞鸟娱乐[bbs.hdbird.com].姐弟恋.720P.中英字幕

Torrent Base Info

Title:
飞鸟娱乐[bbs.hdbird.com].姐弟恋.720P.中英字幕
Total size:
2.05 GB
Create Time:
2010-10-21 16:14:10
Total Files:
10

Guess You Like

Files in this torrent

  • 飞鸟娱乐[bbs.hdbird.com].姐弟恋.720P.中英字幕.torrent
  • 飞鸟娱乐[bbs.hdbird.com].姐弟恋.720P.中英字幕
    • [email protected]飞鸟娱乐.txt (1.27 KB)
    • 弹弹堂-远征的召唤.url (317 B)
    • 德克萨斯扑克游戏-零距离感受欧美最风靡的扑克游戏.url (272 B)
    • 飞鸟娱乐-边看电影边学英语,娱乐学习两不误.url (272 B)
    • 飞鸟娱乐[bbs.hdbird.com].姐弟恋.720P.中英字幕.mkv (2.05 GB)
    • 飞鸟娱乐网址更新器.rar (122 KB)
    • 飞鸟娱乐主页-下载免费电影的绝佳选择!.htm (5.99 KB)
    • 姐弟恋.jpg (73.1 KB)
    • 姐弟恋.txt (7.9 KB)
    • 小浪影视-下载中英字幕电影的好地方.url (270 B)

Torrent Recommendation

1.19 GB
2014-03-10 21:38:29
1.35 GB
2015-03-05 07:52:15
491 MB
2014-03-28 02:44:42
2.24 GB
2015-09-09 10:30:55
1.05 GB
2015-04-20 06:33:17
3.92 GB
2009-09-14 08:58:31
803 MB
2016-11-02 14:35:48
2.03 GB
2017-05-04 04:53:34
1.25 GB
2017-06-01 11:28:12
2.59 GB
2016-03-28 06:16:36
2.94 GB
2016-04-02 12:03:35
1.36 GB
2014-04-08 03:12:29
536 MB
2013-02-10 13:32:52
3.6 GB
2012-04-07 08:09:13
1.04 GB
2014-03-13 11:00:24
1.66 GB
None
917 MB
2016-06-22 09:11:31

Torrent Description

Names
The Rebound/姐弟恋/爱情逆转胜/中英字幕/中文字幕/英中字幕/英文字幕
Caption
【飞鸟影视BT组】姐弟恋 The.Rebound.2009.BluRay.720p.x264.AC3-WOFEI 中英字幕
Year
2009
Nation
美国
Category
喜剧/爱情
Language
英语
File Format
X264 + AC3
Video Size
1280 x 720
File Size
1CD 2.05G
Director
巴特·弗伦德里希 Bart Freundlich
Starring
凯瑟琳·泽塔-琼斯 Catherine Zeta-Jones....Sandy/贾斯汀·巴萨 Justin Bartha....Aram Finklestein/John Schneider ....Trevor/Lynn Whitfield ....Laura/杰克·切瑞 Jake Cherry....Frank Jr./萨曼夏·艾弗斯 Samantha Ivers....Cinnamon/Art Garfunkel ....Harry/Kelly Gould ....Sadie/Stephanie Szostak ....Alice Marnier/Kate Jennings Grant ....Daphne/Alice Playten ....Sensei Dana/Andrew Cherry ....Frank Jr/Lisa Gerber ....Susie/Saidah Arrika Ekulona ....Lateefah/Tom Riis Farrell ....Terrence/Marcel Simoneau ....Henri/Igor Cherkassky ....Club Dancer/Jordan Carlos ....Twentysomething #4/Ramon Flowers ....Transvestite/Rachel Parker ....Yoga Instructor/Rob Kerkovich ....Mitch/Paul Basile ....Goth Hipster/Gregory Marcel ....Trapeze Student/Lawrence Stallings ....Brent/Perry Silver ....Talkative Bellman/Joanna Gleason ....Roberta/Sam Robards/Sara DeRosa ....Cigarette Girl/Daniel Burress ....Coffee Shop Hipster/Alana Cadiz ....Girl in Pop Burger/Steve Antonucci ....Waiter/彼得·康博伊 Peter Conboy....Museum Staff/Megan Byrne ....Molly Foster/THOMAS MIDDLEDITCH ....MAVERICK/Tyree Michael Simpson ....School Principal/Lisamarie Costabile ....Lead Yoga Student/Danny Salomon ....Boxing fan/Robert Bizik ....TV Sports Announcer/John Ellison Conlee ....Magnus Croom/Kelvin Hale ....TV Sports Announcer/Loukas Papas ....Restaurant Patron/Adesuwa Addy Iyare ....Boxing fan/Rich Odell ....Boxing Commisioner/Zabryna Guevara ....Teacher/Marc Alan Austen ....Rabbi's cousin/Tony Kost ....Ringside High Roller/David Ross ....The Office Guy/Derek Milman ....Actor #1/Gabrielle Sterbenz ....Kissing Girl/Jennifer Markey ....Boxing Spectator/Quarles Antoine ....Boxing Match Attendee (uncredited)/Laura Lynn Berrios ....SNN office co-worker (uncredited)/Gail Bugeja ....Parent / Pedestrian (uncredited)/Johnathan Hallgrey ....Restaurant patron (uncredited)/Edward M. Kelahan ....Ringside High Roller (uncredited)/Danielle McKee ....Airline Passenger (uncredited)/Peter Riga ....Airport Traveler (uncredited)/Tom Stratford ....Shopper (uncredited)/Jenni
故事背景发生在美国纽约,刚离婚的Sandy(凯瑟琳丽塔琼丝饰)带着一对儿女搬离前夫的住所,开始自给自足的全新生活,多年没有工作经验的她,凭着自己的认真和努力终于在体育电视台找到一份可以发挥所长的职务,紧凑的上班生活和独自扶养小孩的压力如排山倒海而来,压得她喘不过气来。 此时,出现一位小她15岁的社会新鲜人Aram(贾斯丁巴森饰),虽然两人还不熟识,Sandy情急之下雇用Aram当保母,聪明又有爱心的Aram,不但得到小朋友们的喜爱,也不知不觉的和Sandy墬入情网,但是两人是否能够突破年龄的差距而长相厮守? F:\rmvb资源\[高清MKV收藏 www.hdbird.com ]\飞鸟娱乐[bbs.hdbird.com].姐弟恋.720P.中英字幕\姐弟恋 The.Rebound.2009.BluRay.720p.x264.AC3-WOFEI.mkv General Complete name : F:\rmvb资源\[高清MKV收藏 www.hdbird.com ]\飞鸟娱乐[bbs.hdbird.com].姐弟恋.720P.中英字幕\姐弟恋 The.Rebound.2009.BluRay.720p.x264.AC3-WOFEI.mkv Format : Matroska File size : 2.05 GiB Duration : 1h 34mn Overall bit rate : 3 095 Kbps Encoded date : UTC 2010-10-21 15:19:26 Writing application : mkvmerge v3.3.0 ('Language') 编译于 Mar 24 2010 14:59:24 Writing library : libebml v0.8.0 + libmatroska v0.9.0 Video #1 ID : 1 Format : AVC Format/Info : Advanced Video Codec Format profile : [email protected] Format settings, CABAC : Yes Format settings, ReFrames : 4 frames Muxing mode : Container [email protected] Codec ID : V_MPEG4/ISO/AVC Duration : 1h 34mn Bit rate : 2 586 Kbps Nominal bit rate : 2 647 Kbps Width : 1 280 pixels Height : 720 pixels Display aspect ratio : 16:9 Frame rate : 23.976 fps Resolution : 8 bits Colorimetry : 4:2:0 Scan type : Progressive Bits/(Pixel*Frame) : 0.117 Stream size : 1.71 GiB (83%) Writing library : x264 core 98 r1649 c54c47d Encoding settings : cabac=1 / ref=4 / deblock=1:-1:-1 / analyse=0x3:0x113 / me=umh / subme=6 / psy=1 / psy_rd=1.00:0.00 / mixed_ref=1 / me_range=16 / chroma_me=1 / trellis=2 / 8x8dct=1 / cqm=0 / deadzone=21,11 / fast_pskip=1 / chroma_qp_offset=-2 / threads=6 / sliced_threads=0 / nr=0 / decimate=1 / interlaced=0 / constrained_intra=0 / bframes=3 / b_pyramid=0 / b_adapt=1 / b_bias=0 / direct=3 / weightb=1 / weightp=2 / keyint=250 / keyint_min=25 / scenecut=40 / intra_refresh=0 / rc_lookahead=40 / rc=2pass / mbtree=1 / bitrate=2647 / ratetol=1.0 / qcomp=0.60 / qpmin=10 / qpmax=51 / qpstep=4 / cplxblur=20.0 / qblur=0.5 / vbv_maxrate=50000 / vbv_bufsize=50000 / ip_ratio=1.40 / aq=1:1.00 / nal_hrd=none Language : English Audio #2 ID : 2 Format : AC-3 Format/Info : Audio Coding 3 Codec ID : A_AC3 Duration : 1h 34mn Bit rate mode : Constant Bit rate : 448 Kbps Channel(s) : 6 channels Channel positions : Front: L C R, Surround: L R, LFE Sampling rate : 48.0 KHz Stream size : 304 MiB (14%) Text #3 ID : 3 Format : SSA Codec ID : S_TEXT/SSA Codec ID/Info : Sub Station Alpha Title : 中英文 Text #4 ID : 4 Format : SSA Codec ID : S_TEXT/SSA Codec ID/Info : Sub Station Alpha Title : 英中文 Text #5 ID : 5 Format : UTF-8 Codec ID : S_TEXT/UTF8 Codec ID/Info : UTF-8 Plain Text Title : 中文 Text #6 ID : 6 Format : UTF-8 Codec ID : S_TEXT/UTF8 Codec ID/Info : UTF-8 Plain Text Title : 英文
convert.freelrc.com 云音乐格式在线转换 QMC转MP3 QMC0转MP3 QMC3转MP3 QMCOGG转OGG QMCFLAC转FLAC NCM转MP3