飞鸟娱乐(bbs.wofei.net).暮光之城.720P.中英字幕

Torrent Base Info

Title:
飞鸟娱乐(bbs.wofei.net).暮光之城.720P.中英字幕
Total size:
2.15 GB
Create Time:
2009-11-24 16:10:26
Total Files:
10

Guess You Like

Files in this torrent

  • 飞鸟娱乐(bbs.wofei.net).暮光之城.720P.中英字幕.torrent
  • 飞鸟娱乐(bbs.wofei.net).暮光之城.720P.中英字幕
    • [email protected] (1.06 KB)
    • 飞鸟娱乐(bbs.wofei.net).暮光之城.720P.中英字幕.jpg (148 KB)
    • 飞鸟娱乐(bbs.wofei.net).暮光之城.720P.中英字幕.txt (10.4 KB)
    • 飞鸟娱乐-边看电影边学英语,娱乐学习两不误.url (271 B)
    • 飞鸟娱乐家园-和浪子一起来开心农场偷菜吧.url (305 B)
    • 飞鸟娱乐主页-下载免费电影的绝佳选择!.htm (5.99 KB)
    • 和漂亮美眉亲密接触.url (272 B)
    • 暮光之城 Twilight.2008.BluRay.720p.x264.AC3-WOFEI.jpg (270 KB)
    • 暮光之城 Twilight.2008.BluRay.720p.x264.AC3-WOFEI.mkv (2.15 GB)
    • 小浪影视-下载中英字幕电影的好地方.url (270 B)

Torrent Recommendation

707 MB
2015-11-28 07:50:45
211 MB
2015-12-03 01:01:33
580 MB
2015-11-27 21:39:30
4.43 GB
2015-11-29 04:39:12
893 MB
2015-12-01 19:04:38
695 MB
2015-12-02 02:05:00
452 MB
2015-11-27 19:13:24
1.59 GB
2015-11-29 12:05:21
13.9 GB
2014-11-07 12:10:43
9.24 GB
2015-11-27 22:20:46
147 MB
2015-11-29 20:50:59
305 MB
2015-11-26 23:42:13
914 MB
2015-11-28 20:38:57
35.5 GB
2015-11-29 18:55:01
649 MB
2015-11-28 18:55:04
91.2 MB
2015-11-30 22:56:43
874 MB
2015-11-29 03:54:13
648 MB
2015-11-28 19:51:01
2.5 GB
2014-07-23 11:35:21
2.32 GB
2015-06-06 15:50:18

Torrent Description

Names
Twilight/暮色/晨光/暮光/暮光之城/中英字幕/中文字幕/英中字幕/英文字幕
Caption
【飞鸟影视BT组】暮光之城 Twilight.2008.BluRay.720p.x264.AC3-WOFEI 中英字幕
Year
2008
Nation
美国
Category
剧情/幻想/爱情/惊悚
Language
英语
File Format
x264 + AC3
Video Size
1280 X 720
File Size
1CD 2.15G
Director
凯瑟琳·哈德威克 Catherine Hardwicke
Starring
克里斯汀·斯图尔特 Kristen Stewart/罗伯特·帕丁森 Robert Pattinson/凯姆·吉甘戴 Cam Gigandet/杰克逊·拉斯波恩 Jackson Rathbone/泰勒·洛特 Taylor Lautner/凯南·鲁兹 Kellan Lutz/迈克·韦尔奇 Michael Welch/阿什丽·格林尼 Ashley Greene/伊莉莎白·里瑟 Elizabeth Reaser/安娜·肯德里克 Anna Kendrick/蕾切尔·李费佛 Rachelle Lefevre/妮基·瑞德 Nikki Reed/贾斯汀·钱 Justin Chon/彼得·费辛利 Peter Facinelli/克里斯蒂·瑟拉图斯 Christian Serratos/比利·伯克 Billy Burke/Gregory Tyree Boyce ....Tyler/Matt Bushell ....Phil/莎拉·克拉克 Sarah Clarke/Edi Gathegi ....Laurent/Gil Birmingham ....Billy Black/José Zú?iga ....Mr. Molina/Solomon Trimble ....Jacob's Friend/耐德·巴拉米 Ned Bellamy/Sean McGrath ....Frat Boy #4/Gavin Bristol ....Frat Boy #3/Alexander Mendeluk ....Frat Boy #1/Hunter Jackson ....Frat Boy #2/Katie Powers ....Waitress/Ayanna Berkshire ....Cora/Trish Egan ....High School Administrator/Bryce Flint-Sommerville ....Mine Security Guard/Catherine Grimme ....Young Bella
贝拉是一个与众不同的女孩,她不热爱虚荣,不会像其他女孩一样追求时髦,也不愿伪装自己刻意去和合不来的同学搞好关系。因为母亲再婚的缘故,贝拉搬去和父亲同住。在新学校里,贝拉遇到了一个名叫爱德华的男孩,他跟贝拉遇见过的所有人都不一样,不仅英俊、聪明、幽默,而且跟贝拉非常有共同语言。两人很快就陷入了爱河。然而爱德华的真实身份其实是一个吸血鬼,自从1918年后他就没有变老过,他可以空手制止一辆飞驰的汽车,跑起来快过狮子,但和其他吸血鬼不一样的是,爱德华本人和他的家族选择了一种独特的生活方式,他们并不喝人血。随着交往的深入,爱德华因为贝拉与自己的过分接近,必须强力控制自己嗜血的本能,同时,爱德华家族的死敌也前来挑战,面临种种困难,爱德华和贝拉能有情人终成眷属吗? 贝拉·斯旺从繁华的凤凰城搬到偏僻且终年阴雨不断的福克斯,她原本认为往后的日子恐怕会很无聊,但当神秘又迷人的爱德华·卡伦出现,不仅生活变得有趣,而且她的心也深深受到吸引。金发帅气的爱德华事实上是秉持素食主义的吸血鬼,为了不让伊莎贝拉发现,他辛苦压抑对伊莎贝拉的爱。互相倾心的两人,在爱情与危险间摆荡,新鲜又刺激的每一天,就像久违的阳光,洒落在浪漫的暮光之城。 在美国西雅图一个名叫凤凰城的地方,住着一位英俊帅气的男青年爱德华。他出没神秘,与世无争,没有人知道他的来历和家世,更重要的是……他是一只永远不会衰老,更不会死亡的吸血鬼。爱德华生于20世纪的第一年,出身于吸血鬼世家的他,自从1918年发育成长为十七岁的翩翩少年之后,他便再也没有衰老,永远保持着年轻俊朗的外形。时光飞梭,过了近百年后,他已经不再靠吸人血为生,因为爱德华喜欢生活在人群聚集的城市中。为了避免吸食人血带来的命案干扰到他的生活,他现在只是偶尔在郊区追捕动物,维持着他永驻的青春。 十七岁的少女伊莎贝拉从小与母亲相依为命,因为父母的感情破裂,母亲带着她去了另一个城市。但当她长大的时候,母亲却决定再婚。伊莎贝拉无法接受继父,因此决定回到父亲查理的身边。伊莎贝拉回到了她的家乡凤凰城,在学校里,她结识了爱德华,很快他便被爱德华的幽默、开朗等等魅力所吸引,渐渐喜欢上了他。 不过,爱德华虽然也喜欢伊莎贝拉,可是他却深知,一只吸血鬼是没有办法和人类正常生活在一起的。但他有无法忘却伊莎贝拉,也不忍心远走高飞,与伊莎贝拉断绝音信。更严重的是,每当和人类走得太近,爱德华就无法抑制自己吸血的本能,所以每次贝拉对他的亲昵举动,爱德华也只能强忍内心吸血的生物欲望。而这时候,爱德华家族的死敌又找上门来,妄图消灭整个爱德华家族。内忧外患的爱德华,究竟与贝拉的感情会走到什么地步,家族的危机又如何去解决呢? 幕后制作 畅销小说的银幕之路 提起《暮色》,很多人想到的是蝉联了《纽约时报》畅销书排行榜152周的同名小说。原着作者斯蒂芬妮·梅耶对电影的改编显得很满意:“写这部小说的时候,我也一直在想,是否有一天能够搬上银幕。所幸的是这一点终于实现了,而且无论是导演还是演员,我符合我心目中的期待。尤其是贝拉的扮演者克里斯汀·斯图尔特,她演得很可爱,完全符合我对贝拉这个角色的预期……只有十七岁的她能够演得如此传神动人,我还有什么话好说呢。” 对于名着的改编,大多数人关心的就是改编之后的版本是否和原着有区别。对于这一点,斯蒂芬妮·梅耶也做出了解答:“剧本是由梅莉莎·罗森伯格负责的,她真的是一个很有经验的编剧,记得还是十多年前,我就已经看过她编剧的《大力士的传奇旅程》。改编成电影,有些情节免不了也做出取舍,作为作者,在这方面我显得很被动,基本上,我是情愿所有东西都毫无保留的放到电影里的(笑),当然我也明白,这一点很难做到,毕竟电影只有2个小时,而书中的故事,远远不止120分钟。” 具体谈到对原着的改动,梅莉莎·罗森伯格说:“斯蒂芬妮·梅耶女士所写的小说,很早我就已经阅读了,所以能负责本片的剧本改编,我感到很荣幸。根据原着,我先写了第一版的剧本,经由斯蒂芬妮·梅耶亲自看过之后,我和她交流了一些修改意见,然后又写了几个版本,最终成形的这个版本,已经是修改了5、6次的了。在大致主线上面,剧本忠实的再现了原着,同时,我也和斯蒂芬妮一起,根据电影的特性增加和修改了一些原着里的故事,相信原着的读者对这些改动也会感到意外的惊喜。” 后“哈利·波特时代”的魔幻新秀 近年来风靡在银幕上的魔幻电影系列,首当其冲的便是《哈利波特》。全球的高额票房使得《哈利波特》成为了魔幻电影的新代表,而《暮色》的小说作者斯蒂芬妮·梅耶也被称为美国的J·K·罗琳,那么《暮色》是否有着复制《哈利·波特》系列的野心呢?导演凯瑟琳·哈德威克对这一点并不掩饰:“《暮色》系列最新的小说在美国上架后的销售情况比《哈利·波特与混血王子》还要好,这部电影潜在的观众群也是有足够分量和数量的。而且这次的改编相当忠实原着,我认为在《哈利·波特与混血王子》延期到明年公映之后,《暮色》在今年是能创造它应有的票房实力。” 《暮色》系列小说已经发展到第二部,显然其电影版也有着系列化的野心,这一点上本片的制片人威克·戈弗雷说得则很保守:“一切看市场的消化力。我们不排除将《新月》(《暮色》第二部的书名)也搬上银幕的可能性,但这还是需要观众来决定。我个人也希望《暮色》能够获得成功,因为这确实是一本很棒的小说,但如果要说《新月》的电影拍摄计划,现在已经开始构思,将来的事说到底还是未知数。”看来,在《黄金罗盘》三部曲的计划泡汤之后,这位曾经担任《龙骑士》制片人的发言也显得谨慎许多。 台前幕后的明星 原着小说中那位天真可爱的伊莎贝拉,在电影中由年仅17岁的克里斯汀·斯图尔特所担当。凭借《战栗空间》踏入影坛的克里斯汀,数年间在好莱坞浮浮沉沉。这次出演《暮色》由于题材和年龄,都让得人不得不拿她和《哈利·波特》系列中扮演赫敏的爱玛·沃特森相比较。克里斯汀对于这一点显得有些无奈:“老实说,我不觉得除了都是畅销书这一点之外,《哈利·波特》和《暮色》有什么类似的地方……一个是讲述魔法世界的,一个则是吸血鬼,而且他们要表达的想法也有着很大的差别。爱玛演的赫敏我很喜欢,是一个很成功的角色,而《暮色》中的伊莎贝拉……对我而言,接下这个角色令我有很大的压力。在这方面,要多谢导演和作者对我的帮助,她们在拍摄过程里都令我倍感轻松。” 本片的投资商Maverick Films,虽然是一家成立仅两年的好莱坞新秀,但它的老板娘却是鼎鼎大名的美国乐坛一姐麦当娜。在经历了今年公司翻拍美国版《我的野蛮女友》的失败之后,麦当娜本人对于这部《暮色》信心十足:“原着我相信大家都已经看过了,我的公司能拿到这部畅销小说的改编权也并不容易。从选角、剧本到整个拍摄过程,经历了太多的风风雨雨,我希望这部电影能够得到观众尤其是小说读者的认同。” D:\rmvb资源\[高清MKV收藏 www.wofei.net ]\飞鸟娱乐(bbs.wofei.net).暮光之城.720P.中英字幕\暮光之城 Twilight.2008.BluRay.720p.x264.AC3-WOFEI.mkv General Complete name : D:\rmvb资源\[高清MKV收藏 www.wofei.net ]\飞鸟娱乐(bbs.wofei.net).暮光之城.720P.中英字幕\暮光之城 Twilight.2008.BluRay.720p.x264.AC3-WOFEI.mkv Format : Matroska File size : 2.15 GiB Duration : 2h 1mn Overall bit rate : 2 524 Kbps Encoded date : UTC 2009-11-24 15:52:01 Writing application : mkvmerge v2.4.0 ('Fumbling Towards Ecstasy') built on Oct 11 2008 20:13:15 Writing library : libebml v0.7.7 + libmatroska v0.8.1 Video #1 ID : 1 Format : AVC Format/Info : Advanced Video Codec Format profile : [email protected] Format settings, CABAC : Yes Format settings, ReFrames : 4 frames Muxing mode : Container [email protected] Codec ID : V_MPEG4/ISO/AVC Duration : 2h 1mn Bit rate : 2 026 Kbps Nominal bit rate : 2 072 Kbps Width : 1 280 pixels Height : 720 pixels Display aspect ratio : 16:9 Frame rate : 23.976 fps Resolution : 24 bits Colorimetry : 4:2:0 Scan type : Progressive Bits/(Pixel*Frame) : 0.092 Stream size : 1.72 GiB (80%) Writing library : x264 core 68 r1183M f21daff Encoding settings : cabac=1 / ref=4 / deblock=1:-1:-1 / analyse=0x3:0x113 / me=umh / subme=7 / psy_rd=1.0:0.0 / mixed_ref=1 / me_range=16 / chroma_me=1 / trellis=2 / 8x8dct=1 / cqm=0 / deadzone=21,11 / chroma_qp_offset=-2 / threads=6 / nr=0 / decimate=1 / mbaff=0 / bframes=3 / b_pyramid=0 / b_adapt=1 / b_bias=0 / direct=3 / wpredb=1 / keyint=250 / keyint_min=25 / scenecut=40 / rc=2pass / bitrate=2072 / ratetol=1.0 / qcomp=0.60 / qpmin=10 / qpmax=51 / qpstep=4 / cplxblur=20.0 / qblur=0.5 / vbv_maxrate=50000 / vbv_bufsize=50000 / ip_ratio=1.40 / pb_ratio=1.30 / aq=1:1.00 Language : English Audio #2 ID : 2 Format : AC-3 Format/Info : Audio Coding 3 Codec ID : A_AC3 Duration : 2h 1mn Bit rate mode : Constant Bit rate : 448 Kbps Channel(s) : 6 channels Channel positions : Front: L C R, Surround: L R, LFE Sampling rate : 48.0 KHz Stream size : 390 MiB (18%) Text #3 ID : 3 Format : SSA Codec ID : S_TEXT/SSA Codec ID/Info : Sub Station Alpha Title : 中英字幕 Text #4 ID : 4 Format : SSA Codec ID : S_TEXT/SSA Codec ID/Info : Sub Station Alpha Title : 英中字幕 Text #5 ID : 5 Format : SSA Codec ID : S_TEXT/SSA Codec ID/Info : Sub Station Alpha Title : 中文字幕 Text #6 ID : 6 Format : SSA Codec ID : S_TEXT/SSA Codec ID/Info : Sub Station Alpha Title : 英文字幕